ผู้เขียน หัวข้อ: Death Wish (2018) : นักฆ่าโคตรอึด [1080p.WEB-DL - พากย์ไทยโรง]  (อ่าน 1098 ครั้ง)

0 สมาชิก และ 1 บุคคลทั่วไป กำลังดูหัวข้อนี้

ออฟไลน์ BLG-Game

  • Administrator
  • Hero Member
  • *********
  • กระทู้: 2533
    • ดูรายละเอียด
    • www.blggames.com


ภาพยนตร์คืนฟอร์มแอ็คชั่นมันส์ระห่ำของ Bruce Willis
เตรียมพบกับการรีเมคด้วยฝีมือของเจ้าพ่อหนังโหดแห่งยุคอย่าง อีไล ร็อธ พ่วงด้วยคนอึดตัวจริงอย่าง บรูซ วิลลิส!



Death Wish ต้นฉบับหนังทวงแค้นตัวจริงกำลังจะกลับมา Death Wish คือเฟรนไชส์หนังแอ็คชั่นทะลักเดือดที่ครองใจแฟนๆ มากที่สุดในยุค 70-80 เรื่องราวของ พอล เคอร์ซี ศัลยแพทย์มากฝีมือและคุณพ่อตัวอย่างที่สัมผัสได้ถึงความรุนแรงที่กำลังก่อตัวขึ้นในเมืองชิคาโก้จากการทำงานในห้องฉุกเฉินแต่ละวัน ต้องมาดีแตกเพราะวันหนึ่งลูกเมียของเขาถูกโจรชั่วบุกเข้าบ้านมาทำร้ายจนปางตาย ในเมื่อตำรวจมีงานล้นมืออยู่แล้ว ด้วยความแค้นที่อัดแน่นอยู่เต็มอก พอล ขอเปลี่ยนตัวเองกลายเป็นเครื่องจักรสังหารเพื่องทวงเอาความยุติธรรมกลับมา เขาไล่ประหารพวกนอกกฏหมายจนเป็นที่กล่าวขาน คนทั้งเมืองตั้งคำถามว่าศาลเตี้ยคนนี้คือยมทูตแห่งความตายหรือเทพผู้คอยพิทักษ์ประชาชนกันแน่ เตรียมพบกับการรีเมคด้วยฝีมือของเจ้าพ่อหนังโหดแห่งยุคอย่าง อีไล ร็อธ พ่วงด้วยคนอึดตัวจริงอย่าง บรูซ วิลลิส มาแสดงนำพร้อมมอบความระห่ำสู่จอภาพยนตร์ปลายปี 2017 นี้





พากย์ไทยโรง 5.1 + เสียงอังกฤษ DD5.1 + บรรยายอังกฤษ


1080p.WEB-DL >
INFO ดูรายละเอียดของไฟล์
Spoiler: show
Format                      : Matroska
File size                   : 4.01 GiB
Duration                    : 1 h 46 min
Overall bit rate            : 5 383 kb/s
Movie name                  : Death.Wish.2018.1080p.WEB-DL.AC-3.THR5.1.H264_Mr.Captain@CtHts

Video
ID                          : 1
Format                      : AVC
Format/Info                 : Advanced Video Codec
Format profile              : High@L4
Format settings             : CABAC / 5 Ref Frames
Format settings, CABAC      : Yes
Format settings, ReFrames   : 5 frames
Codec ID                    : V_MPEG4/ISO/AVC
Duration                    : 1 h 46 min
Bit rate                    : 4 549 kb/s
Width                       : 1 920 pixels
Height                      : 800 pixels
Display aspect ratio        : 2.40:1
Frame rate mode             : Constant
Frame rate                  : 23.976 (24000/1001) FPS
Color space                 : YUV
Chroma subsampling          : 4:2:0
Bit depth                   : 8 bits
Scan type                   : Progressive
Bits/(Pixel*Frame)          : 0.124
Stream size                 : 3.39 GiB (85%)
Title                       : Death.Wish.2018.1080p.WEB-DL.AC-3.THR5.1.H264_Mr.Captain@CtHts
Language                    : English
Default                     : Yes
Forced                      : No
Color range                 : Limited
Color primaries             : BT.709
Transfer characteristics    : BT.709
Matrix coefficients         : BT.709

Audio #1
ID                          : 2
Format                      : AC-3
Format/Info                 : Audio Coding 3
Codec ID                    : A_AC3
Duration                    : 1 h 46 min
Bit rate mode               : Constant
Bit rate                    : 448 kb/s
Channel(s)                  : 6 channels
Channel positions           : Front: L C R, Side: L R, LFE
Sampling rate               : 48.0 kHz
Frame rate                  : 31.250 FPS (1536 SPF)
Bit depth                   : 16 bits
Compression mode            : Lossy
Delay relative to video     : -42 ms
Stream size                 : 342 MiB (8%)
Title                       : THR 5.1 Modified By ~Mr.Captain~
Language                    : Thai
Service kind                : Complete Main
Default                     : Yes
Forced                      : Yes

Audio #2
ID                          : 3
Format                      : AC-3
Format/Info                 : Audio Coding 3
Codec ID                    : A_AC3
Duration                    : 1 h 46 min
Bit rate mode               : Constant
Bit rate                    : 384 kb/s
Channel(s)                  : 6 channels
Channel positions           : Front: L C R, Side: L R, LFE
Sampling rate               : 48.0 kHz
Frame rate                  : 31.250 FPS (1536 SPF)
Bit depth                   : 16 bits
Compression mode            : Lossy
Delay relative to video     : -42 ms
Stream size                 : 293 MiB (7%)
Title                       : Death.Wish.2018.1080p.WEB-DL.DD5.1.H264-FGT
Language                    : English
Service kind                : Complete Main
Default                     : No
Forced                      : No

Text
ID                          : 4
Format                      : UTF-8
Codec ID                    : S_TEXT/UTF8
Codec ID/Info               : UTF-8 Plain Text
Duration                    : 1 h 39 min
Bit rate                    : 63 b/s
Count of elements           : 1568
Stream size                 : 46.6 KiB (0%)
Title                       : English Srt
Language                    : English
Default                     : No
Forced                      : No

Menu
00:00:00.000                : en:1
00:11:42.000                : en:2
00:22:53.000                : en:3
00:34:51.000                : en:4
00:47:10.000                : en:5
01:00:27.000                : en:6
01:11:29.000                : en:7
01:21:50.000                : en:8
01:31:54.000                : en:9
01:40:12.000                : en:10



ไฟล์เกม VIP เกมไหนมีปัญหาโหลดไม่ใด้ PM ส่งข้อความถึง Admin
ไฟล์เก่าเว็บ RabbitFile สามารถโหลดใด้เพียงเปลี่ยน Url จาก http://www.rabbitfile.com/....... เป็น http://www.mekafile.com/........