ผู้เขียน หัวข้อ: The Wolfman [*Unrated Director s Cut.*] (2010) : มนุษย์หมาป่า ราชันย์อำมหิต [Mini 720p, Mini 1080p, HQ 1080p]  (อ่าน 360 ครั้ง)

0 สมาชิก และ 1 บุคคลทั่วไป กำลังดูหัวข้อนี้

ออนไลน์ BLG-Game

  • Administrator
  • Hero Member
  • *********
  • กระทู้: 2216
    • ดูรายละเอียด
    • www.blggames.com


...The Wolfman มนุษย์หมาป่า ราชันย์อำมหิต ซึ่งได้ดารานำชายออสการ์ เบนิซิโอ เดล โทโร รับบทเป็น ลอว์เรนซ์ ทัลบอท ชายผู้มั่งคั่ง
ได้ถูกเรียกตัวให้กลับไปยังคฤหาสน์ของครอบครัวเนื่องจากการหายตัวไปของพี่ชาย เขากับผู้เป็นพ่อที่ไม่ค่อยสนิทกัน
– นำแสดงโดย แอนโทนี่ ฮอพกินส์ ก็จำต้องร่วมกันตามหาพี่ที่สาบสูญ ซึ่งเป็นจุดเริ่มต้นของเรื่องราวสยดสยองที่ถูกลิขิตให้เขาต้องพบเจอ

   ลอว์เรนซ์ ทัลบอท ในช่วงเยาว์วัยนั้นจบสิ้นในคืนที่แม่ของเขาตาย หลังจากนั้นเขาก็จากหมู่บ้านเล็ก ๆ ที่แบล็คมัวร์แห่งนี้ไป เขาใช้เวลานานหลายสิบปี
เพื่อหนีจากอดีตอันเจ็บปวด แต่เมื่อคู่หมั้นของพี่ชาย เกว็น คอนลิฟฟ์ (เอมิลี่ บลันท์) มาขอร้องให้เขาช่วย ทัลบอทจึงเดินทางกลับมา
และได้พบกลับเรื่องน่าสพรึงเมื่อปรากฏว่ามีสัตว์ที่ดุร้าย และกระหายเลือดไล่ฆ่าผู้คนในหมู่บ้าน ซึ่งทางสก็อตแลนด์ยาร์ดได้ส่งนักสืบ
ที่ชื่อเอเบอร์ลิน (ฮูโก้ วีฟวิ่ง) มาทำการสืบคดีนี้
  ในขณะที่ทัลบอท ค่อยๆ สืบหาความจริงนั้น เขาได้ยินถึงเรื่องของคำสาปที่ทำให้คนกลายร่างเป็นหมาป่าในคืนพระจันทร์เต็มดวง
เขาจึงต้องวางแผนล่าเจ้าสัตว์ร้ายนี้เพื่อปกป้องหญิงสาวที่เขาเริ่มจะมีใจให้ เมื่อการไล่ล่าในคืนพระจันทร์เต็มดวงเกิดขึ้น
ชายหนุ่มผู้มีอดีตอันเจ็บปวดก็ได้พบกับด้านมืดที่ซุกซ่อนอยู่ในตัวเองโดยที่เขาไม่เคยคาดคิดมาก่อน!!!





[พากย์ไทย 5.1 + อังกฤษ DTS-HD MA 5.1]-[บรรยายไทย + อังกฤษ]
[เสียงไทย + ซับไทย BluRay MASTER +ซับไทย PGS คมชัดถึงใจ]



เล็กพริกขี้หนู 720p > http://www.mekafile.com/dl.php?f=ad1e4b1xebNO
INFO ดูรายละเอียดของไฟล์
Spoiler: show
Format                                   : Matroska
Format version                           : Version 4 / Version 2
File size                                : 1.78 GiB
Duration                                 : 1h 58mn
Overall bit rate                         : 2 146 Kbps
Movie name                               : {MINI}The.Wolfman.UNRATED.720p.BrRip.x264.AC3.x264_by NongZEZA@CtHts
Encoded date                             : UTC 2010-02-22 21:41:31
Writing application                      : mkvmerge v5.9.0 ( On The Loose ) built on Dec  9 2012 15:37:01
Writing library                          : libebml v1.3.0 + libmatroska v1.4.0

Video
ID                                       : 1
Format                                   : AVC
Format/Info                              : Advanced Video Codec
Format profile                           : High@L3.1
Format settings, CABAC                   : Yes
Format settings, ReFrames                : 4 frames
Codec ID                                 : V_MPEG4/ISO/AVC
Duration                                 : 1h 58mn
Bit rate                                 : 1 213 Kbps
Width                                    : 1 280 pixels
Height                                   : 692 pixels
Display aspect ratio                     : 1.85:1
Original display aspect ratio            : 1.85:1
Frame rate mode                          : Constant
Frame rate                               : 23.976 fps
Color space                              : YUV
Chroma subsampling                       : 4:2:0
Bit depth                                : 8 bits
Scan type                                : Progressive
Bits/(Pixel*Frame)                       : 0.057
Stream size                              : 1.00 GiB (56%)
Title                                    : {MINI}The.Wolfman.UNRATED.720p.BrRip.x264.AC3.x264_by NongZEZA@CtHts
Writing library                          : x264 core 130 r2273 b3065e6
Encoding settings                        : cabac=1 / ref=3 / deblock=1:0:0 / analyse=0x3:0x113 / me=umh / subme=9 / psy=1 / psy_rd=1.00:0.00 / mixed_ref=1 / me_range=16 / chroma_me=1 / trellis=1 / 8x8dct=1 / cqm=0 / deadzone=21,11 / fast_pskip=1 / chroma_qp_offset=-2 / threads=12 / lookahead_threads=1 / sliced_threads=0 / nr=0 / decimate=1 / interlaced=0 / bluray_compat=0 / constrained_intra=0 / bframes=3 / b_pyramid=2 / b_adapt=1 / b_bias=0 / direct=1 / weightb=1 / open_gop=0 / weightp=2 / keyint=240 / keyint_min=24 / scenecut=40 / intra_refresh=0 / rc_lookahead=40 / rc=2pass / mbtree=1 / bitrate=1213 / ratetol=1.0 / qcomp=0.60 / qpmin=0 / qpmax=69 / qpstep=4 / cplxblur=20.0 / qblur=0.5 / ip_ratio=1.40 / aq=1:1.00
Language                                 : English
Default                                  : Yes
Forced                                   : No
Color primaries                          : BT.709
Transfer characteristics                 : BT.709
Matrix coefficients                      : BT.709

Audio #1
ID                                       : 2
Format                                   : AC-3
Format/Info                              : Audio Coding 3
Mode extension                           : CM (complete main)
Format settings, Endianness              : Big
Codec ID                                 : A_AC3
Duration                                 : 1h 58mn
Bit rate mode                            : Constant
Bit rate                                 : 448 Kbps
Channel(s)                               : 6 channels
Channel positions                        : Front: L C R, Side: L R, LFE
Sampling rate                            : 48.0 KHz
Bit depth                                : 16 bits
Compression mode                         : Lossy
Stream size                              : 381 MiB (21%)
Title                                    : Thai BluRay Master
Language                                 : Thai
Default                                  : Yes
Forced                                   : Yes

Audio #2
ID                                       : 3
Format                                   : AC-3
Format/Info                              : Audio Coding 3
Mode extension                           : CM (complete main)
Format settings, Endianness              : Big
Codec ID                                 : A_AC3
Duration                                 : 1h 58mn
Bit rate mode                            : Constant
Bit rate                                 : 448 Kbps
Channel(s)                               : 6 channels
Channel positions                        : Front: L C R, Side: L R, LFE
Sampling rate                            : 48.0 KHz
Bit depth                                : 16 bits
Compression mode                         : Lossy
Stream size                              : 381 MiB (21%)
Title                                    : English AC3 5.1
Language                                 : English
Default                                  : No
Forced                                   : No

Text #1
ID                                       : 4
Format                                   : VobSub
Codec ID                                 : S_VOBSUB
Codec ID/Info                            : The same subtitle format used on DVDs
Title                                    : Thai 480p
Language                                 : Thai
Default                                  : No
Forced                                   : No

Text #2
ID                                       : 5
Format                                   : VobSub
Codec ID                                 : S_VOBSUB
Codec ID/Info                            : The same subtitle format used on DVDs
Title                                    : Thai 720p
Language                                 : Thai
Default                                  : No
Forced                                   : No

Text #3
ID                                       : 6
Format                                   : VobSub
Codec ID                                 : S_VOBSUB
Codec ID/Info                            : The same subtitle format used on DVDs
Title                                    : Thai 1080p BluRay Master
Language                                 : Thai
Default                                  : Yes
Forced                                   : Yes

Text #4
ID                                       : 7
Format                                   : VobSub
Codec ID                                 : S_VOBSUB
Codec ID/Info                            : The same subtitle format used on DVDs
Title                                    : Thai 1080p BIG
Language                                 : Thai
Default                                  : No
Forced                                   : No

Text #5
ID                                       : 8
Format                                   : PGS
Codec ID                                 : S_HDMV/PGS
Codec ID/Info                            : The same subtitle format used on BDs/HD-DVDs
Title                                    : Thai PGS BluRay Master
Language                                 : Thai
Default                                  : No
Forced                                   : No

Text #6
ID                                       : 9
Format                                   : VobSub
Codec ID                                 : S_VOBSUB
Codec ID/Info                            : The same subtitle format used on DVDs
Title                                    : English
Language                                 : English
Default                                  : No
Forced                                   : No

Menu
00:00:00.000                             : en:00:00:00.000
00:02:59.888                             : en:00:02:59.888
00:13:34.188                             : en:00:13:34.188
00:22:50.578                             : en:00:22:50.578
00:27:39.283                             : en:00:27:39.283
00:34:37.534                             : en:00:34:37.534
00:40:50.490                             : en:00:40:50.490
00:48:28.364                             : en:00:48:28.364
00:52:23.557                             : en:00:52:23.557
00:55:22.486                             : en:00:55:22.486
01:00:49.187                             : en:01:00:49.187
01:06:46.002                             : en:01:06:46.002
01:09:41.010                             : en:01:09:41.010
01:14:07.568                             : en:01:14:07.568
01:22:06.463                             : en:01:22:06.463
01:28:25.675                             : en:01:28:25.675
01:34:25.910                             : en:01:34:25.910
01:39:48.357                             : en:01:39:48.357
01:44:55.956                             : en:01:44:55.956
01:52:06.845                             : en:01:52:06.845



เล็กพริกขี้หนู 1080p Super HQ > http://www.mekafile.com/dl.php?f=a262601xdZdx
INFO ดูรายละเอียดของไฟล์
Spoiler: show
Format                                   : Matroska
Format version                           : Version 4 / Version 2
File size                                : 3.90 GiB
Duration                                 : 1h 58mn
Overall bit rate                         : 4 696 Kbps
Movie name                               : {MINI-HQ}The.Wolfman.UNRATED.1080p.BrRip.x264.DTS.x264_by NongZEZA@CtHts
Encoded date                             : UTC 2010-02-22 21:41:31
Writing application                      : mkvmerge v5.9.0 ( On The Loose ) built on Dec  9 2012 15:37:01
Writing library                          : libebml v1.3.0 + libmatroska v1.4.0

Video
ID                                       : 1
Format                                   : AVC
Format/Info                              : Advanced Video Codec
Format profile                           : High@L4.0
Format settings, CABAC                   : Yes
Format settings, ReFrames                : 4 frames
Codec ID                                 : V_MPEG4/ISO/AVC
Duration                                 : 1h 58mn
Bit rate                                 : 3 456 Kbps
Width                                    : 1 920 pixels
Height                                   : 1 040 pixels
Display aspect ratio                     : 1.85:1
Frame rate mode                          : Constant
Frame rate                               : 23.976 fps
Color space                              : YUV
Chroma subsampling                       : 4:2:0
Bit depth                                : 8 bits
Scan type                                : Progressive
Bits/(Pixel*Frame)                       : 0.072
Stream size                              : 2.83 GiB (72%)
Title                                    : {MINI-HQ}The.Wolfman.UNRATED.1080p.BrRip.x264.DTS.x264_by NongZEZA@CtHts
Writing library                          : x264 core 130 r2273 b3065e6
Encoding settings                        : cabac=1 / ref=4 / deblock=1:0:0 / analyse=0x3:0x113 / me=umh / subme=10 / psy=1 / psy_rd=1.00:0.00 / mixed_ref=1 / me_range=24 / chroma_me=1 / trellis=2 / 8x8dct=1 / cqm=0 / deadzone=21,11 / fast_pskip=1 / chroma_qp_offset=-2 / threads=12 / lookahead_threads=1 / sliced_threads=0 / nr=0 / decimate=1 / interlaced=0 / bluray_compat=0 / constrained_intra=0 / bframes=4 / b_pyramid=2 / b_adapt=2 / b_bias=0 / direct=1 / weightb=1 / open_gop=0 / weightp=2 / keyint=240 / keyint_min=24 / scenecut=40 / intra_refresh=0 / rc_lookahead=40 / rc=2pass / mbtree=1 / bitrate=3456 / ratetol=1.0 / qcomp=0.60 / qpmin=0 / qpmax=69 / qpstep=4 / cplxblur=20.0 / qblur=0.5 / ip_ratio=1.40 / aq=1:1.00
Language                                 : English
Default                                  : Yes
Forced                                   : No
Color primaries                          : BT.709
Transfer characteristics                 : BT.709
Matrix coefficients                      : BT.709

Audio #1
ID                                       : 2
Format                                   : AC-3
Format/Info                              : Audio Coding 3
Mode extension                           : CM (complete main)
Format settings, Endianness              : Big
Codec ID                                 : A_AC3
Duration                                 : 1h 58mn
Bit rate mode                            : Constant
Bit rate                                 : 448 Kbps
Channel(s)                               : 6 channels
Channel positions                        : Front: L C R, Side: L R, LFE
Sampling rate                            : 48.0 KHz
Bit depth                                : 16 bits
Compression mode                         : Lossy
Stream size                              : 381 MiB (10%)
Title                                    : Thai BluRay Master
Language                                 : Thai
Default                                  : Yes
Forced                                   : Yes

Audio #2
ID                                       : 3
Format                                   : DTS
Format/Info                              : Digital Theater Systems
Mode                                     : 16
Format settings, Endianness              : Big
Codec ID                                 : A_DTS
Duration                                 : 1h 58mn
Bit rate mode                            : Constant
Bit rate                                 : 755 Kbps
Channel(s)                               : 6 channels
Channel positions                        : Front: L C R, Side: L R, LFE
Sampling rate                            : 48.0 KHz
Bit depth                                : 24 bits
Compression mode                         : Lossy
Stream size                              : 642 MiB (16%)
Title                                    : English DTS
Language                                 : English
Default                                  : No
Forced                                   : No

Text #1
ID                                       : 4
Format                                   : VobSub
Codec ID                                 : S_VOBSUB
Codec ID/Info                            : The same subtitle format used on DVDs
Title                                    : Thai 480p
Language                                 : Thai
Default                                  : No
Forced                                   : No

Text #2
ID                                       : 5
Format                                   : VobSub
Codec ID                                 : S_VOBSUB
Codec ID/Info                            : The same subtitle format used on DVDs
Title                                    : Thai 720p
Language                                 : Thai
Default                                  : No
Forced                                   : No

Text #3
ID                                       : 6
Format                                   : VobSub
Codec ID                                 : S_VOBSUB
Codec ID/Info                            : The same subtitle format used on DVDs
Title                                    : Thai 1080p BluRay Master
Language                                 : Thai
Default                                  : Yes
Forced                                   : Yes

Text #4
ID                                       : 7
Format                                   : VobSub
Codec ID                                 : S_VOBSUB
Codec ID/Info                            : The same subtitle format used on DVDs
Title                                    : Thai 1080p BIG
Language                                 : Thai
Default                                  : No
Forced                                   : No

Text #5
ID                                       : 8
Format                                   : PGS
Codec ID                                 : S_HDMV/PGS
Codec ID/Info                            : The same subtitle format used on BDs/HD-DVDs
Title                                    : Thai PGS BluRay Master
Language                                 : Thai
Default                                  : No
Forced                                   : No

Text #6
ID                                       : 9
Format                                   : VobSub
Codec ID                                 : S_VOBSUB
Codec ID/Info                            : The same subtitle format used on DVDs
Title                                    : English
Language                                 : English
Default                                  : No
Forced                                   : No

Menu
00:00:00.000                             : en:00:00:00.000
00:02:59.888                             : en:00:02:59.888
00:13:34.188                             : en:00:13:34.188
00:22:50.578                             : en:00:22:50.578
00:27:39.283                             : en:00:27:39.283
00:34:37.534                             : en:00:34:37.534
00:40:50.490                             : en:00:40:50.490
00:48:28.364                             : en:00:48:28.364
00:52:23.557                             : en:00:52:23.557
00:55:22.486                             : en:00:55:22.486
01:00:49.187                             : en:01:00:49.187
01:06:46.002                             : en:01:06:46.002
01:09:41.010                             : en:01:09:41.010
01:14:07.568                             : en:01:14:07.568
01:22:06.463                             : en:01:22:06.463
01:28:25.675                             : en:01:28:25.675
01:34:25.910                             : en:01:34:25.910
01:39:48.357                             : en:01:39:48.357
01:44:55.956                             : en:01:44:55.956
01:52:06.845                             : en:01:52:06.845



ชัด Super HQ +กระหึ่ม > http://www.mekafile.com/dl.php?f=uc42981xdZ7X
INFO ดูรายละเอียดของไฟล์
Spoiler: show
ไฟล์เกม VIP เกมไหนมีปัญหาโหลดไม่ใด้ PM ส่งข้อความถึง Admin
ไฟล์เก่าเว็บ RabbitFile สามารถโหลดใด้เพียงเปลี่ยน Url จาก http://www.rabbitfile.com/....... เป็น http://www.mekafile.com/........