ผู้เขียน หัวข้อ: Bumblebee (2018) : บัมเบิ้ลบี [พากย์ไทยโรง 5.1 + เสียงอังกฤษ DD5.1] - 1080p WEB-DL ภาพชัดระดับมาสเตอร์!  (อ่าน 143 ครั้ง)

0 สมาชิก และ 1 บุคคลทั่วไป กำลังดูหัวข้อนี้

ออฟไลน์ BLG-Game

  • Administrator
  • Hero Member
  • *********
  • กระทู้: 2025
    • ดูรายละเอียด
    • www.blggames.com


ภาพยนตร์จุดเริ่มของการมายังโลกมนุษย์ของชาวดาวไซเบอร์ทรอน
หุ่นยักษ์จากต่างดาวที่มาโลกเพื่อภารกิจบางอย่าง ความผูกพันระหว่างมนุษย์กับเอเลี่ยนหุ่นยนต์และสงครามที่มันลากมายังโลก!
&
••• 1080p.WEB-DL.H264.AC3.THR5.1 •••
พากย์ไทยโรง 5.1 + เสียงอังกฤษ DD5.1



Bumblebee ย้อนกลับไปในปี 1987 บัมเบิ้ลบีค้นพบที่หลบภัยอยู่ในพื้นที่เก็บของเก่าในเมืองริมชายหาดเล็ก ๆ ในรัฐแคลิฟอร์เนีย โดยที่ชาร์ลี (เฮลีย์ สไตน์เฟลด์) สาวที่กำลังจะมีอายุครบ 18 ปี ค้นพบบัมเบี้ลบี ในสภาพรถโฟล์กสวาเกนสีเหลืองที่ผุพัง ผ่านศึกมาหนัก และในไม่ช้า เธอก็รู้ว่าบัมเบิ้ลบีไม่ใช่แค่รถเต่าธรรมดาเลย





อ้างถึง
Format                      : Matroska
Format version              : Version 4
File size                   : 4.75 GiB
Duration                    : 1 h 54 min
Overall bit rate            : 5 950 kb/s
Movie name                  : Bumblebee.2018.1080p.WEB-DL.H264.AC3.THR5.1_Mr.Captain@CtHts

Video
ID                          : 1
Format                      : AVC
Format/Info                 : Advanced Video Codec
Format profile              : High@L4
Format settings             : CABAC / 4 Ref Frames
Format settings, CABAC      : Yes
Format settings, ReFrames   : 4 frames
Codec ID                    : V_MPEG4/ISO/AVC
Duration                    : 1 h 54 min
Bit rate                    : 5 119 kb/s
Width                       : 1 912 pixels
Height                      : 1 072 pixels
Display aspect ratio        : 16:9
Frame rate mode             : Constant
Frame rate                  : 23.976 FPS
Color space                 : YUV
Chroma subsampling          : 4:2:0
Bit depth                   : 8 bits
Scan type                   : Progressive
Bits/(Pixel*Frame)          : 0.104
Stream size                 : 4.09 GiB (86%)
Title                       : Bumblebee.2018.1080p.WEB-DL.H264.AC3.THR5.1_Mr.Captain@CtHts
Language                    : English
Default                     : Yes
Forced                      : No
Color range                 : Limited
Color primaries             : BT.709
Transfer characteristics    : BT.709
Matrix coefficients         : BT.709

Audio 1
ID                          : 2
Format                      : AC-3
Format/Info                 : Audio Coding 3
Commercial name             : Dolby Digital
Codec ID                    : A_AC3
Duration                    : 1 h 53 min
Bit rate mode               : Constant
Bit rate                    : 448 kb/s
Channel(s)                  : 6 channels
Channel layout              : L R C LFE Ls Rs
Sampling rate               : 48.0 kHz
Frame rate                  : 31.250 FPS (1536 SPF)
Bit depth                   : 16 bits
Compression mode            : Lossy
Stream size                 : 365 MiB (7%)
Title                       : ThaiRong 5.1 @ 448 kb/s By Mr.Captain@CtHts
Language                    : Thai
Service kind                : Complete Main
Default                     : Yes
Forced                      : Yes

Audio 2
ID                          : 3
Format                      : AC-3
Format/Info                 : Audio Coding 3
Commercial name             : Dolby Digital
Codec ID                    : A_AC3
Duration                    : 1 h 53 min
Bit rate mode               : Constant
Bit rate                    : 384 kb/s
Channel(s)                  : 6 channels
Channel layout              : L R C LFE Ls Rs
Sampling rate               : 48.0 kHz
Frame rate                  : 31.250 FPS (1536 SPF)
Bit depth                   : 16 bits
Compression mode            : Lossy
Stream size                 : 313 MiB (6%)
Title                       : English DD5.1 @ 384 kb/s
Language                    : English
Service kind                : Complete Main
Default                     : No
Forced                      : No

Menu
00:00:00.000                : en:Chapter 1
00:03:29.000                : en:Chapter 2
00:12:14.000                : en:Chapter 3
00:16:54.000                : en:Chapter 4
00:21:00.000                : en:Chapter 5
00:26:40.000                : en:Chapter 6
00:32:30.000                : en:Chapter 7
00:39:40.000                : en:Chapter 8
00:45:15.000                : en:Chapter 9
00:50:39.000                : en:Chapter 10
00:54:12.000                : en:Chapter 11
01:01:06.000                : en:Chapter 12
01:06:22.000                : en:Chapter 13
01:11:34.000                : en:Chapter 14
01:16:02.000                : en:Chapter 15
01:21:31.000                : en:Chapter 16
01:25:02.000                : en:Chapter 17
01:30:09.000                : en:Chapter 18
01:36:40.000                : en:Chapter 19
01:43:45.000                : en:Chapter 20
01:49:35.000                : en:Chapter 21


http://www.mekafile.com/dl.php?f=mGb539bRKMAT

ไฟล์เกม VIP เกมไหนมีปัญหาโหลดไม่ใด้ PM ส่งข้อความถึง Admin
ไฟล์เก่าเว็บ RabbitFile สามารถโหลดใด้เพียงเปลี่ยน Url จาก http://www.rabbitfile.com/....... เป็น http://www.mekafile.com/........