ผู้เขียน หัวข้อ: Creed II (2018) : ครี้ด 2 บ่มแชมป์เลือดนักชก • [Soundtrack บรรยายไทย + อังกฤษ + ภาษาอื่น ๆ ] • MINI HQ HEVC x265 2160p  (อ่าน 112 ครั้ง)

0 สมาชิก และ 1 บุคคลทั่วไป กำลังดูหัวข้อนี้

ออนไลน์ BLG-Game

  • Administrator
  • Hero Member
  • *********
  • กระทู้: 2216
    • ดูรายละเอียด
    • www.blggames.com


สาวกเจ้าแห่งสังเวียนจงระวัง! และห้ามพลาด!
เปิดศึกทายาทแชมป์! ไมเคิล บี. จอร์แดน คืนสังเวียนเดือด!
โดยผู้กำกับ/นักแสดงนำ (ซิลเวสเตอร์ สตอลโลน)


••• MINI HQ HEVC x265 2160p ••• Soundtrack บรรยายไทย



Creed II (2018)
  เมื่อชีวิตของ อโดนิส มาอยู่ในจุดที่เขาต้องรับมือกับสิ่งสำคัญถึง 2 เรื่องในเวลาเดียวกัน ทั้งต้องเตรียมตัวฝึกฝนอย่างเข้มงวด
เพื่อคืนสังเวียนอย่างยิ่งใหญ่ตามเป้าหมายชีวิตที่วางไว้ แถมยังต้องเผชิญหน้ากับคู่แข่งที่เคยเกี่ยวข้องกับครอบครัวของเขาในอดีต
ทำให้ศึกใหญ่ที่กำลังจะมาถึงยิ่งตึงเครียดและท้าทายเข้าไปอีก แต่ท่ามกลางความสับสน อโดนิส ยังมี ร็อคกี้ บัลบัว คอยยืดหยัดอยู่เคียงข้าง
พร้อมค้นหาคำตอบของชีวิตว่า 'อะไรคือสิ่งสำคัญที่ทำให้คนเราลุกขึ้นสู้ ?!!!
.
.
.
 ผู้กำกับ สตีเว่น เคเปิล จูเนียร์ (Steven Caple Jr.) เตรียมพาทุกคนย้อนกลับไปยังจุดเริ่มต้นเพื่อเรียนรู้ว่า กว่าคนคนหนึ่งจะกลายเป็นแชมป์เปี้ยนผู้ยิ่งใหญ่ต้องผ่านอะไรมาบ้าง
และขอให้จำไว้ว่า ไม่ว่าจะไปอยู่ที่ไหน เราก็ไม่มีทางหนีอดีตของตัวเองได้ แต่นั่นจะทำให้เราเข้าใจถึงความหมายของคำว่า 'ครอบครัว' อย่างแท้จริง.





อ้างถึง
Format                                   : Matroska
Format version                           : Version 4
File size                                : 5.04 GiB
Duration                                 : 2 h 10 min
Overall bit rate                         : 5 548 kb/s
Encoded date                             : UTC 2019-03-19 02:34:22
Writing application                      : mkvmerge v32.0.0 ('Astral Progressions') 64-bit
Writing library                          : libebml v1.3.7 + libmatroska v1.5.0
Cover                                    : Yes
Attachments                              : cover

Video
ID                                       : 1
Format                                   : HEVC
Format/Info                              : High Efficiency Video Coding
Format profile                           : Main 10@L5@Main
Codec ID                                 : V_MPEGH/ISO/HEVC
Duration                                 : 2 h 10 min
Bit rate                                 : 5 015 kb/s
Width                                    : 3 840 pixels
Height                                   : 2 160 pixels
Display aspect ratio                     : 16:9
Frame rate mode                          : Constant
Frame rate                               : 23.976 (24000/1001) FPS
Color space                              : YUV
Chroma subsampling                       : 4:2:0
Bit depth                                : 10 bits
Bits/(Pixel*Frame)                       : 0.025
Stream size                              : 4.55 GiB (90%)
Language                                 : English
Default                                  : Yes
Forced                                   : No
Color range                              : Limited
Color primaries                          : BT.2020
Transfer characteristics                 : PQ
Matrix coefficients                      : BT.2020 non-constant

Audio
ID                                       : 2
Format                                   : AC-3
Format/Info                              : Audio Coding 3
Commercial name                          : Dolby Digital
Codec ID                                 : A_AC3
Duration                                 : 2 h 10 min
Bit rate mode                            : Constant
Bit rate                                 : 448 kb/s
Channel(s)                               : 6 channels
Channel layout                           : L R C LFE Ls Rs
Sampling rate                            : 48.0 kHz
Frame rate                               : 31.250 FPS (1536 SPF)
Bit depth                                : 16 bits
Compression mode                         : Lossy
Stream size                              : 417 MiB (8%)
Title                                    : Compatibility Track / Dolby Digital Audio / 5.1 / 48 kHz / 640 kbps
Language                                 : English
Service kind                             : Complete Main
Default                                  : No
Forced                                   : No

Text #1
ID                                       : 3
Format                                   : PGS
Muxing mode                              : zlib
Codec ID                                 : S_HDMV/PGS
Codec ID/Info                            : Picture based subtitle format used on BDs/HD-DVDs
Duration                                 : 2 h 7 min
Bit rate                                 : 27.5 kb/s
Count of elements                        : 3092
Stream size                              : 25.1 MiB (0%)
Title                                    : Portuguese (Brazilian)
Language                                 : Portuguese
Default                                  : No
Forced                                   : No

Text #2
ID                                       : 4
Format                                   : PGS
Muxing mode                              : zlib
Codec ID                                 : S_HDMV/PGS
Codec ID/Info                            : Picture based subtitle format used on BDs/HD-DVDs
Duration                                 : 2 h 9 min
Bit rate                                 : 32.6 kb/s
Count of elements                        : 3556
Stream size                              : 30.1 MiB (1%)
Title                                    : English (SDH)
Language                                 : English
Default                                  : No
Forced                                   : No

Text #3
ID                                       : 5
Format                                   : PGS
Muxing mode                              : zlib
Codec ID                                 : S_HDMV/PGS
Codec ID/Info                            : Picture based subtitle format used on BDs/HD-DVDs
Duration                                 : 2 h 7 min
Bit rate                                 : 23.0 kb/s
Count of elements                        : 2214
Stream size                              : 21.1 MiB (0%)
Title                                    : Danish
Language                                 : Danish
Default                                  : No
Forced                                   : No

Text #4
ID                                       : 6
Format                                   : PGS
Muxing mode                              : zlib
Codec ID                                 : S_HDMV/PGS
Codec ID/Info                            : Picture based subtitle format used on BDs/HD-DVDs
Duration                                 : 2 h 7 min
Bit rate                                 : 27.5 kb/s
Count of elements                        : 3120
Stream size                              : 25.1 MiB (0%)
Title                                    : Finnish
Language                                 : Finnish
Default                                  : No
Forced                                   : No

Text #5
ID                                       : 7
Format                                   : PGS
Muxing mode                              : zlib
Codec ID                                 : S_HDMV/PGS
Codec ID/Info                            : Picture based subtitle format used on BDs/HD-DVDs
Duration                                 : 2 h 7 min
Bit rate                                 : 21.8 kb/s
Count of elements                        : 2930
Stream size                              : 20.0 MiB (0%)
Title                                    : French
Language                                 : French
Default                                  : No
Forced                                   : No

Text #6
ID                                       : 8
Format                                   : PGS
Muxing mode                              : zlib
Codec ID                                 : S_HDMV/PGS
Codec ID/Info                            : Picture based subtitle format used on BDs/HD-DVDs
Duration                                 : 2 h 7 min
Bit rate                                 : 21.4 kb/s
Count of elements                        : 2712
Stream size                              : 19.6 MiB (0%)
Title                                    : Norwegian
Language                                 : Norwegian
Default                                  : No
Forced                                   : No

Text #7
ID                                       : 9
Format                                   : PGS
Muxing mode                              : zlib
Codec ID                                 : S_HDMV/PGS
Codec ID/Info                            : Picture based subtitle format used on BDs/HD-DVDs
Duration                                 : 2 h 7 min
Bit rate                                 : 26.2 kb/s
Count of elements                        : 3032
Stream size                              : 24.0 MiB (0%)
Title                                    : Spanish (Latin American)
Language                                 : Spanish
Default                                  : No
Forced                                   : No

Text #8
ID                                       : 10
Format                                   : PGS
Muxing mode                              : zlib
Codec ID                                 : S_HDMV/PGS
Codec ID/Info                            : Picture based subtitle format used on BDs/HD-DVDs
Duration                                 : 2 h 7 min
Bit rate                                 : 22.8 kb/s
Count of elements                        : 2276
Stream size                              : 20.8 MiB (0%)
Title                                    : Swedish
Language                                 : Swedish
Default                                  : No
Forced                                   : No

Text #9
ID                                       : 11
Format                                   : PGS
Muxing mode                              : zlib
Codec ID                                 : S_HDMV/PGS
Codec ID/Info                            : Picture based subtitle format used on BDs/HD-DVDs
Duration                                 : 2 h 7 min
Bit rate                                 : 33.1 kb/s
Count of elements                        : 3142
Stream size                              : 30.3 MiB (1%)
Title                                    : Thai
Language                                 : Thai
Default                                  : Yes
Forced                                   : No

Text #10
ID                                       : 12
Format                                   : VobSub
Muxing mode                              : zlib
Codec ID                                 : S_VOBSUB
Codec ID/Info                            : Picture based subtitle format used on DVDs
Duration                                 : 2 h 7 min
Bit rate                                 : 7 155 b/s
Count of elements                        : 1571
Stream size                              : 6.55 MiB (0%)
Title                                    : Thai
Language                                 : Thai
Default                                  : No
Forced                                   : No

Text #11
ID                                       : 13
Format                                   : UTF-8
Codec ID                                 : S_TEXT/UTF8
Codec ID/Info                            : UTF-8 Plain Text
Duration                                 : 2 h 7 min
Bit rate                                 : 113 b/s
Count of elements                        : 1571
Stream size                              : 106 KiB (0%)
Title                                    : Thai
Language                                 : Thai
Default                                  : No
Forced                                   : No

Menu
00:00:00.000                             : en:Chapter 01
00:11:33.151                             : en:Chapter 02
00:20:06.163                             : en:Chapter 03
00:33:28.006                             : en:Chapter 04
00:43:49.126                             : en:Chapter 05
00:57:51.885                             : en:Chapter 06
01:06:38.870                             : en:Chapter 07
01:20:12.516                             : en:Chapter 08
01:31:01.956                             : en:Chapter 09
01:40:14.217                             : en:Chapter 10
01:50:31.458                             : en:Chapter 11
02:02:55.910                             : en:Chapter 12



http://www.mekafile.com/dl.php?f=Ld7286bRRYBI
ไฟล์เกม VIP เกมไหนมีปัญหาโหลดไม่ใด้ PM ส่งข้อความถึง Admin
ไฟล์เก่าเว็บ RabbitFile สามารถโหลดใด้เพียงเปลี่ยน Url จาก http://www.rabbitfile.com/....... เป็น http://www.mekafile.com/........