ผู้เขียน หัวข้อ: Creed II (2018) : ครี้ด 2 บ่มแชมป์เลือดนักชก • [เสียงอังกฤษ TrueHD 7.1.Atmos]-[บรรยายไทย + อังกฤษ] • 4K Full Bitrate .MKV  (อ่าน 200 ครั้ง)

0 สมาชิก และ 1 บุคคลทั่วไป กำลังดูหัวข้อนี้

ออฟไลน์ BLG-Game

  • Administrator
  • Hero Member
  • *********
  • กระทู้: 2216
    • ดูรายละเอียด
    • www.blggames.com


สาวกเจ้าแห่งสังเวียนจงระวัง! และห้ามพลาด!
เปิดศึกทายาทแชมป์! ไมเคิล บี. จอร์แดน คืนสังเวียนเดือด!
โดยผู้กำกับ/นักแสดงนำ (ซิลเวสเตอร์ สตอลโลน)


••• 4K Full Bitrate .MKV ••• Soundtrack บรรยายไทย



Creed II (2018)
  เมื่อชีวิตของ อโดนิส มาอยู่ในจุดที่เขาต้องรับมือกับสิ่งสำคัญถึง 2 เรื่องในเวลาเดียวกัน ทั้งต้องเตรียมตัวฝึกฝนอย่างเข้มงวด
เพื่อคืนสังเวียนอย่างยิ่งใหญ่ตามเป้าหมายชีวิตที่วางไว้ แถมยังต้องเผชิญหน้ากับคู่แข่งที่เคยเกี่ยวข้องกับครอบครัวของเขาในอดีต
ทำให้ศึกใหญ่ที่กำลังจะมาถึงยิ่งตึงเครียดและท้าทายเข้าไปอีก แต่ท่ามกลางความสับสน อโดนิส ยังมี ร็อคกี้ บัลบัว คอยยืดหยัดอยู่เคียงข้าง
พร้อมค้นหาคำตอบของชีวิตว่า 'อะไรคือสิ่งสำคัญที่ทำให้คนเราลุกขึ้นสู้ ?!!!
.
.
.
 ผู้กำกับ สตีเว่น เคเปิล จูเนียร์ (Steven Caple Jr.) เตรียมพาทุกคนย้อนกลับไปยังจุดเริ่มต้นเพื่อเรียนรู้ว่า กว่าคนคนหนึ่งจะกลายเป็นแชมป์เปี้ยนผู้ยิ่งใหญ่ต้องผ่านอะไรมาบ้าง
และขอให้จำไว้ว่า ไม่ว่าจะไปอยู่ที่ไหน เราก็ไม่มีทางหนีอดีตของตัวเองได้ แต่นั่นจะทำให้เราเข้าใจถึงความหมายของคำว่า 'ครอบครัว' อย่างแท้จริง.





อ้างถึง
Format                                   : Matroska
Format version                           : Version 4
File size                                : 44.5 GiB
Duration                                 : 2 h 10 min
Overall bit rate mode                    : Variable
Overall bit rate                         : 49.0 Mb/s
Movie name                               : [4K Remux]-CREED.II.2018.UHD.BluRay.2160p.TrueHD.Atmos.7.1-AleXa@LaKraTos

Video
ID                                       : 1
Format                                   : HEVC
Format/Info                              : High Efficiency Video Coding
Commercial name                          : HDR10
Format profile                           : Main 10@L5.1@High
Codec ID                                 : V_MPEGH/ISO/HEVC
Duration                                 : 2 h 10 min
Bit rate                                 : 41.9 Mb/s
Width                                    : 3 840 pixels
Height                                   : 2 160 pixels
Display aspect ratio                     : 16:9
Frame rate mode                          : Constant
Color space                              : YUV
Bit depth                                : 10 bits
Title                                    : [4K Remux]-CREED.II.2018.UHD.BluRay.2160p.TrueHD.Atmos.7.1-AleXa@LaKraTos
Language                                 : English
Default                                  : Yes
Forced                                   : Yes
Color range                              : Limited
Color primaries                          : BT.2020
Matrix coefficients                      : BT.2020 non-constant

Audio 1
ID                                       : 2
Format                                   : MLP FBA 16-ch
Format/Info                              : Meridian Lossless Packing FBA with 16-channel presentation
Commercial name                          : Dolby TrueHD with Dolby Atmos
Codec ID                                 : A_TRUEHD
Duration                                 : 2 h 10 min
Bit rate mode                            : Variable
Bit rate                                 : 3 613 kb/s
Maximum bit rate                         : 5 451 kb/s
Channel(s)                               : 8 channels
Channel layout                           : L R C LFE Ls Rs Lb Rb
Sampling rate                            : 48.0 kHz
Frame rate                               : 1 200.000 FPS (40 SPF)
Compression mode                         : Lossless
Stream size                              : 3.28 GiB (7%)
Title                                    : English TrueHD 7.1.Atmos
Language                                 : English
Default                                  : Yes
Forced                                   : Yes
Number of dynamic objects                : 15
Bed channel count                        : 1 channel
Bed channel configuration                : LFE

Audio 2
ID                                       : 3
Format                                   : DTS
Format/Info                              : Digital Theater Systems
Codec ID                                 : A_DTS
Duration                                 : 2 h 10 min
Bit rate mode                            : Constant
Bit rate                                 : 1 509 kb/s
Channel(s)                               : 6 channels
Channel layout                           : C L R Ls Rs LFE
Sampling rate                            : 48.0 kHz
Frame rate                               : 93.750 FPS (512 SPF)
Bit depth                                : 24 bits
Compression mode                         : Lossy
Stream size                              : 1.37 GiB (3%)
Title                                    : English DTS-HD MA 5.1
Language                                 : English
Default                                  : No
Forced                                   : No

Audio 3
ID                                       : 4
Format                                   : AC-3
Format/Info                              : Audio Coding 3
Commercial name                          : Dolby Digital
Codec ID                                 : A_AC3
Duration                                 : 2 h 10 min
Bit rate mode                            : Constant
Bit rate                                 : 448 kb/s
Channel(s)                               : 6 channels
Channel layout                           : L R C LFE Ls Rs
Sampling rate                            : 48.0 kHz
Frame rate                               : 31.250 FPS (1536 SPF)
Bit depth                                : 16 bits
Compression mode                         : Lossy
Stream size                              : 417 MiB (1%)
Title                                    : English AC3 5.1
Language                                 : English
Service kind                             : Complete Main
Default                                  : No
Forced                                   : No

Audio 4
ID                                       : 5
Format                                   : AC-3
Format/Info                              : Audio Coding 3
Commercial name                          : Dolby Digital
Codec ID                                 : A_AC3
Duration                                 : 2 h 10 min
Bit rate mode                            : Constant
Bit rate                                 : 640 kb/s
Channel(s)                               : 6 channels
Channel layout                           : L R C LFE Ls Rs
Sampling rate                            : 48.0 kHz
Frame rate                               : 31.250 FPS (1536 SPF)
Bit depth                                : 16 bits
Compression mode                         : Lossy
Stream size                              : 595 MiB (1%)
Title                                    : English AC3 5.1
Language                                 : English
Service kind                             : Complete Main
Default                                  : No
Forced                                   : No

Audio 5
ID                                       : 6
Format                                   : AC-3
Format/Info                              : Audio Coding 3
Commercial name                          : Dolby Digital
Codec ID                                 : A_AC3
Duration                                 : 2 h 10 min
Bit rate mode                            : Constant
Bit rate                                 : 640 kb/s
Channel(s)                               : 6 channels
Channel layout                           : L R C LFE Ls Rs
Sampling rate                            : 48.0 kHz
Frame rate                               : 31.250 FPS (1536 SPF)
Bit depth                                : 16 bits
Compression mode                         : Lossy
Stream size                              : 595 MiB (1%)
Title                                    : English AC3 5.1
Language                                 : English
Service kind                             : Complete Main
Default                                  : No
Forced                                   : No

Text 1
ID                                       : 7
Format                                   : VobSub
Codec ID                                 : S_VOBSUB
Codec ID/Info                            : Picture based subtitle format used on DVDs
Duration                                 : 2 h 7 min
Bit rate                                 : 2 255 b/s
Count of elements                        : 1572
Stream size                              : 2.06 MiB (0%)
Title                                    : Thai 480p
Language                                 : Thai
Default                                  : No
Forced                                   : No

Text 2
ID                                       : 8
Format                                   : VobSub
Codec ID                                 : S_VOBSUB
Codec ID/Info                            : Picture based subtitle format used on DVDs
Duration                                 : 2 h 7 min
Bit rate                                 : 4 328 b/s
Count of elements                        : 1572
Stream size                              : 3.96 MiB (0%)
Title                                    : Thai 720p
Language                                 : Thai
Default                                  : No
Forced                                   : No

Text 3
ID                                       : 9
Format                                   : VobSub
Codec ID                                 : S_VOBSUB
Codec ID/Info                            : Picture based subtitle format used on DVDs
Duration                                 : 2 h 7 min
Bit rate                                 : 7 245 b/s
Count of elements                        : 1572
Stream size                              : 6.63 MiB (0%)
Title                                    : Thai 1080p
Language                                 : Thai
Default                                  : Yes
Forced                                   : Yes

Text 4
ID                                       : 10
Format                                   : VobSub
Codec ID                                 : S_VOBSUB
Codec ID/Info                            : Picture based subtitle format used on DVDs
Duration                                 : 2 h 7 min
Bit rate                                 : 7 244 b/s
Count of elements                        : 1572
Stream size                              : 6.63 MiB (0%)
Title                                    : Thai 1080p Yellow
Language                                 : Thai
Default                                  : No
Forced                                   : No

Text 5
ID                                       : 11
Format                                   : VobSub
Codec ID                                 : S_VOBSUB
Codec ID/Info                            : Picture based subtitle format used on DVDs
Duration                                 : 2 h 7 min
Bit rate                                 : 7 245 b/s
Count of elements                        : 1572
Stream size                              : 6.63 MiB (0%)
Title                                    : Thai 1080p Out
Language                                 : Thai
Default                                  : No
Forced                                   : No

Text 6
ID                                       : 12
Format                                   : VobSub
Codec ID                                 : S_VOBSUB
Codec ID/Info                            : Picture based subtitle format used on DVDs
Duration                                 : 2 h 7 min
Bit rate                                 : 10.5 kb/s
Count of elements                        : 1572
Stream size                              : 9.64 MiB (0%)
Title                                    : Thai 1080p BIG
Language                                 : Thai
Default                                  : No
Forced                                   : No

Text 7
ID                                       : 13
Format                                   : PGS
Codec ID                                 : S_HDMV/PGS
Codec ID/Info                            : Picture based subtitle format used on BDs/HD-DVDs
Duration                                 : 2 h 7 min
Bit rate                                 : 29.0 kb/s
Count of elements                        : 3144
Stream size                              : 26.5 MiB (0%)
Title                                    : Thai PGS BluRay Master
Language                                 : Thai
Default                                  : No
Forced                                   : No

Text 8
ID                                       : 14
Format                                   : PGS
Codec ID                                 : S_HDMV/PGS
Codec ID/Info                            : Picture based subtitle format used on BDs/HD-DVDs
Duration                                 : 2 h 7 min
Bit rate                                 : 29.0 kb/s
Count of elements                        : 3144
Stream size                              : 26.5 MiB (0%)
Title                                    : Thai PGS Out
Language                                 : Thai
Default                                  : No
Forced                                   : No

Text 9
ID                                       : 15
Format                                   : PGS
Codec ID                                 : S_HDMV/PGS
Codec ID/Info                            : Picture based subtitle format used on BDs/HD-DVDs
Duration                                 : 2 h 9 min
Bit rate                                 : 34.5 kb/s
Count of elements                        : 3557
Stream size                              : 31.9 MiB (0%)
Title                                    : English
Language                                 : English
Default                                  : No
Forced                                   : No


http://www.mekafile.com/dl.php?f=5C848fbRSYtW
ไฟล์เกม VIP เกมไหนมีปัญหาโหลดไม่ใด้ PM ส่งข้อความถึง Admin
ไฟล์เก่าเว็บ RabbitFile สามารถโหลดใด้เพียงเปลี่ยน Url จาก http://www.rabbitfile.com/....... เป็น http://www.mekafile.com/........