ผู้เขียน หัวข้อ: The Marine: 3-Pack (2006-2013) / เดอะ มารีน ฉบับรวมภาคจบสมบูรณ์ [MINI HD 1800P]  (อ่าน 445 ครั้ง)

0 สมาชิก และ 1 บุคคลทั่วไป กำลังดูหัวข้อนี้

ออฟไลน์ BLG-Game

  • Administrator
  • Hero Member
  • *********
  • กระทู้: 2216
    • ดูรายละเอียด
    • www.blggames.com


The Marine (2006) คนคลั่ง ล่าทะลุสุดขีดนรก
ประเภท/Type :
Action/Adventure
Drama/Romance
Thriller
สร้างโดย/Studio : 20th Century Fox
ผู้จัดจำหน่าย/Copyright : Catalyst (แคททาลิสท์)
ผู้กำกับ/Directors :
- John Bonito
นักแสดง/Actors :
- John Cena
- Kelly Carlson
- Robert Patrick
Length : 92 นาที/minutes

เรื่องย่อ
    จอห์น เซน่า แชมป์มวยปล้ำ WWE แสดงภาพยนตร์เรื่องแรก เปิดตัวด้วยแนวแอ็คชั่นลุ้นระทึกสุดโหด เซน่า รับบทเป็น จอห์น ไตรตั้น (John Triton) วีรบุรุษนาวิกโยธินหนุ่มที่มุ่งหน้ากลับบ้านหลังจากปลดประจำการ – โดยที่เขาไม่เต็มใจนัก – จากสงครามอ่าวสมรภูมิอิรัก แต่กลับต้องมาต่อกรกับเพื่อนร่วมชาติ เมื่อภรรยาของเขา (เคลลี่ คาร์ลสัน) ถูกกลุ่มคนร้ายสุดโฉดลักพาตัวไป โดยมี โรม (โรเบิร์ต แพททริค) เป็นหัวหน้าจอมโหด เมื่อถึงเวลาต้องลุย เดอะ มารีน ก็ไม่เคยยอมให้อุปสรรคใดมาขวางหน้า จนกว่าภาระกิจสุดหินและสำคัญที่สุดในชีวิตจะสำเร็จลุล่วง




-------------------------------------------------------------------------------------------



The Marine 2 (2009) ล่าทะลุเหนือขีดนรก
ประเภท/Type :
Action/Adventure
สร้างโดย/Studio : 20th Century Fox
ผู้จัดจำหน่าย/Copyright : Catalyst (แคททาลิสท์)
ผู้กำกับ/Directors :
- Roel Reine
นักแสดง/Actors :
- Ted DiBiase Jr.
- Temuera Morrison
- Lara Cox
- Robert Coleby
- Michael Rooker
Length : 95 นาที/minutes

เรื่องย่อ
    ยอดนักมวยปล้ำซูเปอร์สตาร์ WWE เท็ด ดิเบียซี่ร่วมอัดความมันส์สุดระห่ำของภาพยนตร์ที่สำแดงพลังแอ็คชั่นสุดเดือด เอฟเฟ็กต์อันน่าทึ่งและวีรกรรมของยอดนายทหารที่ทุกคนต้องยกนิ้วให้
    ในระหว่างหยุดพักผ่อน ณ รีสอร์ทแห่งหนึ่งที่สวยงาม นายทหารนาวิกโยธิน โจ ลินวู้ด (เท็ด ดิเบียซี่) และโรบิน ภรรยาของเขากำลังสนุกสนานอยู่ในปาร์ตี้ที่จัดขึ้นสำหรับแขกพิเศษ ทันใดนั้นเหตุการณ์ไม่คาดฝันได้เกิดขึ้น เมื่อผู้ก่อการร้ายกลุ่มหนึ่งบุกเข้ามาในงานแล้วจับตัวนักท่องเที่ยวจำนวนมากเป็นตัวประกัน เพื่อต่อรองเงื่อนไข โดยมีโรบินตกเป็นหนึ่งในตัวประกัน โจ ที่ไร้กำลังสนับสนุนและมีเพียงตัวคนเดียวในประเทศที่ไม่คุ้นเคย ต้องใช้ทักษะฝีมือเชิงรบที่ฝึกฝนมาอย่างเชี่ยวกรากต่อสู้กับเหล่าร้าย ช่วยเหลือตัวประกัน และป้องกันไม่ให้สงครามระหว่างประเทศเกิดขึ้น




---------------------------------------------------------------------------------------



The Marine 3 : Homefront (2013) ล่าระห่ำทะลุขีดนรก
ประเภท/Type :
Action/Adventure
สร้างโดย/Studio : 20th Century Fox
ผู้จัดจำหน่าย/Copyright : Catalyst (แคททาลิสท์)
ผู้กำกับ/Directors :
- Scott Wiper
นักแสดง/Actors :
- Mike "The Miz" Mizanin
- Neal McDonough
- Ashley Bell
- Michael Eklund
Length : 90 นาที/minutes

เรื่องย่อ
    นักมวยปล้ำซูเปอร์สตาร์จาก WWE ไมค์ "เดอะ มิซ" มิซานิน ล่าระห่ำไม่ยั้งในภาพยนตร์แอ็คชั่นที่มันส์ที่สุดของชุด "เดอะ มารีน" ขณะลาพักราชการเพื่อกลับมาเยี่ยมภูมิลำเนา เจค คาร์เตอร์ พบว่าน้องสาวของเขาถูกกลุ่มผู้ร้ายจับตัวไป เพื่อช่วยชีวิตเธอ เจคได้ลุยเดี่ยวเข้าไปชนกับพวกมันถึงฐานบัญชาการ แล้วพบว่าหัวหน้าผู้โหดเหี้ยมของพวกมันกำลังวางแผนก่อการร้ายที่น่ากลัวที่สุดและอันตรายที่สุด ขณะที่เวลาเหลือน้อยลงทุกที เจคพบว่ามีเพียงเขาคนเดียวเท่านั้นที่จะหยุดการสังหารหมู่ที่กำลังจะเกิดขึ้นได้ แต่วีรบุรุษของชาติผู้นี้อาจต้องสังเวยชีวิตตัวเอง เพื่อแลกกับความปลอดภัยของผู้บริสุทธิ์อีกนับพัน



---------------------------------------------------------------------------------------

INFO ดูรายละเอียดของไฟล์
Spoiler: show
Format                           : Matroska
File size                        : 1.82 GiB
Duration                         : 1h 31mn
Overall bit rate                 : 2 840 Kbps
Encoded date                     : UTC 2013-08-07 11:37:52
Writing application              : mkvmerge v4.0.0 ( The Stars were mine ) built on Jun  5 2010 17:44:09
Writing library                  : libebml v1.0.0 + libmatroska v1.0.0
Video
ID                               : 1
Format                           : AVC
Format/Info                      : Advanced Video Codec
Format profile                   : High@L3.0
Format settings, CABAC           : No
Format settings, ReFrames        : 1 frame
Codec ID                         : V_MPEG4/ISO/AVC
Duration                         : 1h 31mn
Bit rate                         : 1 887 Kbps
Nominal bit rate                 : 2 000 Kbps
Width                            : 1 920 pixels
Height                           : 1 080 pixels
Display aspect ratio             : 16:9
Frame rate                       : 23.976 fps
Color space                      : YUV
Chroma subsampling               : 4:2:0
Bit depth                        : 8 bits
Scan type                        : Progressive
Bits/(Pixel*Frame)               : 0.038
Stream size                      : 1.21 GiB (66%)
Writing library                  : x264 core 80 r1378+57 6f6b50a
Encoding settings                : cabac=0 / ref=1 / deblock=1:0:0 / analyse=0x3:0x113 / me=hex / subme=7 / psy=1 / psy_rd=1.0:0.0 / mixed_ref=0 / me_range=16 / chroma_me=1 / trellis=0 / 8x8dct=1 / cqm=0 / deadzone=21,11 / fast_pskip=1 / chroma_qp_offset=-2 / threads=3 / sliced_threads=0 / nr=0 / decimate=1 / mbaff=0 / constrained_intra=0 / bframes=0 / wpredp=2 / keyint=250 / keyint_min=25 / scenecut=40 / rc_lookahead=40 / rc=abr / mbtree=1 / bitrate=2000 / ratetol=1.0 / qcomp=0.60 / qpmin=10 / qpmax=51 / qpstep=4 / ip_ratio=1.40 / aq=1:1.00
Audio #1
ID                               : 2
Format                           : AC-3
Format/Info                      : Audio Coding 3
Mode extension                   : CM (complete main)
Codec ID                         : A_AC3
Duration                         : 1h 31mn
Bit rate mode                    : Constant
Bit rate                         : 448 Kbps
Channel(s)                       : 6 channels
Channel positions                : Front: L C R, Side: L R, LFE
Sampling rate                    : 48.0 KHz
Bit depth                        : 16 bits
Compression mode                 : Lossy
Delay relative to video          : 3s 0ms
Stream size                      : 294 MiB (16%)
Language                         : English
Audio #2
ID                               : 3
Format                           : AC-3
Format/Info                      : Audio Coding 3
Mode extension                   : CM (complete main)
Codec ID                         : A_AC3
Duration                         : 1h 31mn
Bit rate mode                    : Constant
Bit rate                         : 448 Kbps
Channel(s)                       : 6 channels
Channel positions                : Front: L C R, Side: L R, LFE
Sampling rate                    : 48.0 KHz
Bit depth                        : 16 bits
Compression mode                 : Lossy
Delay relative to video          : 3s 0ms
Stream size                      : 294 MiB (16%)
Language                         : Thai
Text
ID                               : 4
Format                           : VobSub
Muxing mode                      : zlib
Codec ID                         : S_VOBSUB
Codec ID/Info                    : The same subtitle format used on DVDs
Language                         : Thai






[เสียง:ไทย-อังกฤษ] [บรรยาย:ไทย]


MINI HD 1800P >
http://www.mekafile.com/dl.php?f=Nb11c01xh45g
http://www.mekafile.com/dl.php?f=Iba1041xh48b
http://www.mekafile.com/dl.php?f=Nbf0071xh47d
ไฟล์เกม VIP เกมไหนมีปัญหาโหลดไม่ใด้ PM ส่งข้อความถึง Admin
ไฟล์เก่าเว็บ RabbitFile สามารถโหลดใด้เพียงเปลี่ยน Url จาก http://www.rabbitfile.com/....... เป็น http://www.mekafile.com/........