ผู้เขียน หัวข้อ: Mortal Engines (2018) : สมรภูมิล่าเมือง: จักรกลมรณะ •[พากย์ไทย 5.1 + เสียงอังกฤษ 5.1] • Mini 1080p  (อ่าน 213 ครั้ง)

0 สมาชิก และ 1 บุคคลทั่วไป กำลังดูหัวข้อนี้

ออฟไลน์ BLG-Game

  • Administrator
  • Hero Member
  • *********
  • กระทู้: 2012
    • ดูรายละเอียด
    • www.blggames.com


มหึมามหากาพย์ภาพยนตร์เรื่องใหม่จาก Peter Jackson
และทีมผู้สร้าง The Lord of the Rings และ King Kong
หยิบนวนิยายขายดีอันดับ 1 ของ Philip Reeve มาสร้างเป็นผลงานฟอร์มยักษ์ส่งท้ายปี
ที่พร้อมจะพาคนดูก้าวสู่โลกที่ไม่เคยเห็นมาก่อน
กับเรื่องราว 1,000 ปีหลังอารยธรรมโลกสูญสิ้นจากสงคราม
มนุษย์ได้สร้างเมืองรูปแบบใหม่ที่สามารถเคลื่อนที่ได้ และออกไล่ล่าเมืองอื่น ๆ


••• Mini 1080p •••



Mortal Engines_(2018)
  หลายพันปีหลังจากที่อารยธรรมถูกทำลายจากเหตุการณ์ที่เกิดขึ้นในกลียุค มนุษย์ได้ปรับตัวและได้พัฒนาวิถีชีวิตใหม่ขึ้น ขณะนี้
เมืองเคลื่อนที่ขนาดใหญ่กำลังตระเวณท่องโลก และไล่ล่าเมืองที่เล็กกว่า ทอม นัทส์เวิร์ธธี (โรเบิร์ต ชีแฮน) ชายหนุ่มซึ่งมาจากระดับล่างของเมืองเคลื่อนที่ของลอนดอน
เขาพบว่าตัวเองกำลังต่อสู้เพื่ออยู่รอด หลังจากที่ได้เผชิญกับผู้ลี้ภัยสุดอันตราย เฮสเตอร์ ชอว์ (เฮรา ฮิลมาร์) ทั้งสองคนอยู่ต่างขั้วกัน มากันคนละเส้นทาง
แต่กลายมาเป็นพันธมิตรกันได้อย่างไม่น่าเชื่อ และมีเป้าหมายที่จะเปลี่ยนอนาคต!!!
.
.

Mortal Engines กำกับโดย คริสเตียน ริเวอร์ส ซึ่งเคยได้รับรางวัลออสการ์สาขาเทคนิคภาพยอดเยี่ยมจาก King Kong
โดยร่วมงานกับผู้สร้างรางวัลออสการ์อย่าง ปีเตอร์ แจ็คสัน, ฟราน วอลช์ และ ฟิลิปปา โบเยน ซึ่งร่วมเขียนบทภาพยนตร์เรื่องนี้ด้วย
ภาพยนตร์ดัดแปลงจากหนังสือซีรีย์ดังของฟิลิป รีฟ ในปี 2001





อ้างถึง
Format version                           : Version 4
File size                                : 3.04 GiB
Duration                                 : 2 h 8 min
Overall bit rate                         : 3 386 kb/s
Encoded date                             : UTC 2019-03-28 09:43:06

Video
ID                                       : 1
Format                                   : AVC
Format/Info                              : Advanced Video Codec
Format profile                           : High@L4.1
Format settings                          : CABAC / 4 Ref Frames
Format settings, CABAC                   : Yes
Format settings, RefFrames               : 4 frames
Codec ID                                 : V_MPEG4/ISO/AVC
Duration                                 : 2 h 8 min
Bit rate                                 : 2 500 kb/s
Width                                    : 1 920 pixels
Height                                   : 808 pixels
Display aspect ratio                     : 2.40:1
Frame rate mode                          : Constant
Frame rate                               : 23.976 (23976/1000) FPS
Color space                              : YUV
Chroma subsampling                       : 4:2:0
Bit depth                                : 8 bits
Scan type                                : Progressive
Bits/(Pixel*Frame)                       : 0.067
Stream size                              : 2.24 GiB (74%)
Writing library                          : x264 core 152 r2851M ba24899
Encoding settings                        : cabac=1 / ref=4 / deblock=1:-1:-1 / analyse=0x3:0x113 / me=umh / subme=9 / psy=1 / psy_rd=1.00:0.15 / mixed_ref=1 / me_range=24 / chroma_me=1 / trellis=2 / 8x8dct=1 / cqm=0 / deadzone=21,11 / fast_pskip=1 / chroma_qp_offset=-3 / threads=32 / lookahead_threads=4 / sliced_threads=0 / nr=0 / decimate=1 / interlaced=0 / bluray_compat=0 / constrained_intra=0 / bframes=3 / b_pyramid=2 / b_adapt=2 / b_bias=0 / direct=3 / weightb=1 / open_gop=0 / weightp=2 / keyint=250 / keyint_min=25 / scenecut=40 / intra_refresh=0 / rc_lookahead=50 / rc=2pass / mbtree=1 / bitrate=2500 / ratetol=1.0 / qcomp=0.60 / qpmin=0 / qpmax=69 / qpstep=4 / cplxblur=20.0 / qblur=0.5 / vbv_maxrate=31250 / vbv_bufsize=31250 / nal_hrd=none / filler=0 / ip_ratio=1.40 / aq=3:1.00
Default                                  : Yes
Forced                                   : No

Audio 1
ID                                       : 2
Format                                   : AC-3
Format/Info                              : Audio Coding 3
Commercial name                          : Dolby Digital
Codec ID                                 : A_AC3
Duration                                 : 2 h 8 min
Bit rate mode                            : Constant
Bit rate                                 : 640 kb/s
Channel(s)                               : 6 channels
Channel layout                           : L R C LFE Ls Rs
Sampling rate                            : 48.0 kHz
Frame rate                               : 31.250 FPS (1536 SPF)
Bit depth                                : 16 bits
Compression mode                         : Lossy
Delay relative to video                  : -43 ms
Stream size                              : 588 MiB (19%)
Title                                    : THAI 5.1
Language                                 : Thai
Service kind                             : Complete Main
Default                                  : Yes
Forced                                   : No

Audio 2
ID                                       : 3
Format                                   : AAC LC
Format/Info                              : Advanced Audio Codec Low Complexity
Codec ID                                 : A_AAC-2
Duration                                 : 2 h 8 min
Bit rate                                 : 224 kb/s
Channel(s)                               : 6 channels
Channel layout                           : C L R Ls Rs LFE
Sampling rate                            : 48.0 kHz
Frame rate                               : 46.875 FPS (1024 SPF)
Compression mode                         : Lossy
Delay relative to video                  : -43 ms
Stream size                              : 206 MiB (7%)
Title                                    : ENG 5.1
Language                                 : English
Default                                  : No
Forced                                   : No

Text 1
ID                                       : 4
Format                                   : PGS
Muxing mode                              : zlib
Codec ID                                 : S_HDMV/PGS
Codec ID/Info                            : Picture based subtitle format used on BDs/HD-DVDs
Duration                                 : 2 h 7 min
Bit rate                                 : 19.8 kb/s
Count of elements                        : 2166
Stream size                              : 18.1 MiB (1%)
Language                                 : Thai
Default                                  : Yes
Forced                                   : No

Text 2
ID                                       : 5
Format                                   : UTF-8
Codec ID                                 : S_TEXT/UTF8
Codec ID/Info                            : UTF-8 Plain Text
Duration                                 : 2 h 8 min
Bit rate                                 : 84 b/s
Count of elements                        : 1279
Stream size                              : 79.0 KiB (0%)
Language                                 : Thai
Default                                  : No
Forced                                   : No

Text 3
ID                                       : 6
Format                                   : PGS
Muxing mode                              : zlib
Codec ID                                 : S_HDMV/PGS
Codec ID/Info                            : Picture based subtitle format used on BDs/HD-DVDs
Duration                                 : 1 h 57 min
Bit rate                                 : 33.0 kb/s
Count of elements                        : 3004
Stream size                              : 27.8 MiB (1%)
Language                                 : English
Default                                  : No
Forced                                   : No

Text 4
ID                                       : 7
Format                                   : VobSub
Muxing mode                              : zlib
Codec ID                                 : S_VOBSUB
Codec ID/Info                            : Picture based subtitle format used on DVDs
Duration                                 : 1 h 57 min
Bit rate                                 : 8 446 b/s
Count of elements                        : 1493
Stream size                              : 7.11 MiB (0%)
Language                                 : English
Default                                  : No
Forced                                   : No



http://www.mekafile.com/dl.php?f=iUd010bS4OSU
ไฟล์เกม VIP เกมไหนมีปัญหาโหลดไม่ใด้ PM ส่งข้อความถึง Admin
ไฟล์เก่าเว็บ RabbitFile สามารถโหลดใด้เพียงเปลี่ยน Url จาก http://www.rabbitfile.com/....... เป็น http://www.mekafile.com/........