ผู้เขียน หัวข้อ: Mortal Engines (2018) : สมรภูมิล่าเมือง: จักรกลมรณะ [เสียงอังกฤษ TrueHD 7.1.Atmos + พากย์ไทย 5.1] - HQ 2160p  (อ่าน 193 ครั้ง)

0 สมาชิก และ 1 บุคคลทั่วไป กำลังดูหัวข้อนี้

ออฟไลน์ BLG-Game

  • Administrator
  • Hero Member
  • *********
  • กระทู้: 2216
    • ดูรายละเอียด
    • www.blggames.com


มหึมามหากาพย์ภาพยนตร์เรื่องใหม่จาก Peter Jackson
และทีมผู้สร้าง The Lord of the Rings และ King Kong
หยิบนวนิยายขายดีอันดับ 1 ของ Philip Reeve มาสร้างเป็นผลงานฟอร์มยักษ์ส่งท้ายปี
ที่พร้อมจะพาคนดูก้าวสู่โลกที่ไม่เคยเห็นมาก่อน
กับเรื่องราว 1,000 ปีหลังอารยธรรมโลกสูญสิ้นจากสงคราม
มนุษย์ได้สร้างเมืองรูปแบบใหม่ที่สามารถเคลื่อนที่ได้ และออกไล่ล่าเมืองอื่น ๆ


••• HQ 2160p •••
เสียงไทย + ซับไทย From Blu-Ray Master.



Mortal Engines_(2018)
  หลายพันปีหลังจากที่อารยธรรมถูกทำลายจากเหตุการณ์ที่เกิดขึ้นในกลียุค มนุษย์ได้ปรับตัวและได้พัฒนาวิถีชีวิตใหม่ขึ้น ขณะนี้
เมืองเคลื่อนที่ขนาดใหญ่กำลังตระเวณท่องโลก และไล่ล่าเมืองที่เล็กกว่า ทอม นัทส์เวิร์ธธี (โรเบิร์ต ชีแฮน) ชายหนุ่มซึ่งมาจากระดับล่างของเมืองเคลื่อนที่ของลอนดอน
เขาพบว่าตัวเองกำลังต่อสู้เพื่ออยู่รอด หลังจากที่ได้เผชิญกับผู้ลี้ภัยสุดอันตราย เฮสเตอร์ ชอว์ (เฮรา ฮิลมาร์) ทั้งสองคนอยู่ต่างขั้วกัน มากันคนละเส้นทาง
แต่กลายมาเป็นพันธมิตรกันได้อย่างไม่น่าเชื่อ และมีเป้าหมายที่จะเปลี่ยนอนาคต!!!
.
.

Mortal Engines กำกับโดย คริสเตียน ริเวอร์ส ซึ่งเคยได้รับรางวัลออสการ์สาขาเทคนิคภาพยอดเยี่ยมจาก King Kong
โดยร่วมงานกับผู้สร้างรางวัลออสการ์อย่าง ปีเตอร์ แจ็คสัน, ฟราน วอลช์ และ ฟิลิปปา โบเยน ซึ่งร่วมเขียนบทภาพยนตร์เรื่องนี้ด้วย
ภาพยนตร์ดัดแปลงจากหนังสือซีรีย์ดังของฟิลิป รีฟ ในปี 2001





อ้างถึง
Format                                   : Matroska
Format version                           : Version 4
File size                                : 12.0 GiB
Duration                                 : 2 h 8 min
Overall bit rate mode                    : Variable
Overall bit rate                         : 13.4 Mb/s
Encoded date                             : UTC 2019-03-28 15:25:02
Writing application                      : mkvmerge v32.0.0 ('Astral Progressions') 64-bit
Writing library                          : libebml v1.3.7 + libmatroska v1.5.0
Cover                                    : Yes
Attachments                              : cover

Video
ID                                       : 1
Format                                   : HEVC
Format/Info                              : High Efficiency Video Coding
Commercial name                          : HDR10
Format profile                           : Main 10@L5.1@High
Codec ID                                 : V_MPEGH/ISO/HEVC
Duration                                 : 2 h 8 min
Bit rate                                 : 7 706 kb/s
Width                                    : 3 840 pixels
Height                                   : 1 608 pixels
Display aspect ratio                     : 2.40:1
Frame rate mode                          : Constant
Frame rate                               : 23.976 (24000/1001) FPS
Color space                              : YUV
Chroma subsampling                       : 4:2:0
Bit depth                                : 10 bits
Bits/(Pixel*Frame)                       : 0.052
Stream size                              : 6.91 GiB (58%)
Writing library                          : x265 3.0+1-ed72af837053:[Windows][GCC 8.2.0][64 bit] 10bit
Encoding settings                        : cpuid=1111039 / frame-threads=4 / numa-pools=14,14 / wpp / pmode / no-pme / no-psnr / no-ssim / log-level=2 / input-csp=1 / input-res=3840x1608 / interlace=0 / total-frames=184645 / level-idc=51 / high-tier=1 / uhd-bd=0 / ref=1 / no-allow-non-conformance / repeat-headers / annexb / no-aud / no-hrd / info / hash=0 / no-temporal-layers / open-gop / min-keyint=23 / keyint=240 / gop-lookahead=0 / bframes=3 / b-adapt=0 / b-pyramid / bframe-bias=0 / rc-lookahead=5 / lookahead-slices=8 / scenecut=0 / radl=0 / no-splice / no-intra-refresh / ctu=32 / min-cu-size=16 / no-rect / no-amp / max-tu-size=32 / tu-inter-depth=1 / tu-intra-depth=1 / limit-tu=0 / rdoq-level=0 / dynamic-rd=0.00 / no-ssim-rd / no-signhide / no-tskip / nr-intra=0 / nr-inter=0 / no-constrained-intra / no-strong-intra-smoothing / max-merge=2 / limit-refs=0 / no-limit-modes / me=2 / subme=5 / merange=57 / temporal-mvp / no-weightp / no-weightb / no-analyze-src-pics / deblock=0:0 / no-sao / no-sao-non-deblock / rd=2 / early-skip / rskip / fast-intra / no-tskip-fast / no-cu-lossless / no-b-intra / no-splitrd-skip / rdpenalty=0 / psy-rd=2.00 / psy-rdoq=0.00 / no-rd-refine / no-lossless / cbqpoffs=0 / crqpoffs=0 / rc=crf / crf=17.0 / qcomp=0.60 / qpstep=4 / stats-write=0 / stats-read=0 / vbv-maxrate=160000 / vbv-bufsize=160000 / vbv-init=0.9 / crf-max=0.0 / crf-min=0.0 / ipratio=1.40 / pbratio=1.30 / aq-mode=2 / aq-strength=0.90 / cutree / zone-count=0 / no-strict-cbr / qg-size=32 / no-rc-grain / qpmax=69 / qpmin=0 / no-const-vbv / sar=0 / overscan=0 / videoformat=5 / range=0 / colorprim=9 / transfer=16 / colormatrix=9 / chromaloc=0 / display-window=0 / master-display=G(13250,34500)B(7500,3000)R(34000,16000)WP(15635,16450)L(10000000,50) / max-cll=1000,921 / min-luma=0 / max-luma=1023 / log2-max-poc-lsb=8 / vui-timing-info / vui-hrd-info / slices=1 / no-opt-qp-pps / no-opt-ref-list-length-pps / no-multi-pass-opt-rps / scenecut-bias=0.05 / no-opt-cu-delta-qp / no-aq-motion / hdr / no-hdr-opt / no-dhdr10-opt / no-idr-recovery-sei / analysis-reuse-level=5 / scale-factor=0 / refine-intra=0 / refine-inter=0 / refine-mv=0 / refine-ctu-distortion=0 / no-limit-sao / ctu-info=0 / no-lowpass-dct / refine-analysis-type=0 / copy-pic=1 / max-ausize-factor=1.0 / no-dynamic-refine / no-single-sei / no-hevc-aq / qp-adaptation-range=1.00
Language                                 : English
Default                                  : Yes
Forced                                   : No
Color range                              : Limited
Color primaries                          : BT.2020
Transfer characteristics                 : PQ
Matrix coefficients                      : BT.2020 non-constant
Mastering display color primaries        : Display P3
Mastering display luminance              : min: 0.0050 cd/m2, max: 1000 cd/m2
Maximum Content Light Level              : 1000 cd/m2
Maximum Frame-Average Light Level        : 921 cd/m2

Audio #1
ID                                       : 2
Format                                   : MLP FBA 16-ch
Format/Info                              : Meridian Lossless Packing FBA with 16-channel presentation
Commercial name                          : Dolby TrueHD with Dolby Atmos
Codec ID                                 : A_TRUEHD
Duration                                 : 2 h 8 min
Bit rate mode                            : Variable
Bit rate                                 : 4 519 kb/s
Maximum bit rate                         : 7 425 kb/s
Channel(s)                               : 8 channels
Channel layout                           : L R C LFE Ls Rs Lb Rb
Sampling rate                            : 48.0 kHz
Frame rate                               : 1 200.000 FPS (40 SPF)
Compression mode                         : Lossless
Delay relative to video                  : 17 ms
Stream size                              : 4.05 GiB (34%)
Language                                 : English
Default                                  : No
Forced                                   : No
Number of dynamic objects                : 11
Bed channel count                        : 1 channel
Bed channel configuration                : LFE

Audio #2
ID                                       : 3
Format                                   : AC-3
Format/Info                              : Audio Coding 3
Commercial name                          : Dolby Digital
Codec ID                                 : A_AC3
Duration                                 : 2 h 8 min
Bit rate mode                            : Constant
Bit rate                                 : 448 kb/s
Channel(s)                               : 6 channels
Channel layout                           : L R C LFE Ls Rs
Sampling rate                            : 48.0 kHz
Frame rate                               : 31.250 FPS (1536 SPF)
Bit depth                                : 16 bits
Compression mode                         : Lossy
Delay relative to video                  : 17 ms
Stream size                              : 411 MiB (3%)
Language                                 : English
Service kind                             : Complete Main
Default                                  : No
Forced                                   : No

Audio #3
ID                                       : 4
Format                                   : AC-3
Format/Info                              : Audio Coding 3
Commercial name                          : Dolby Digital
Codec ID                                 : A_AC3
Duration                                 : 2 h 8 min
Bit rate mode                            : Constant
Bit rate                                 : 640 kb/s
Channel(s)                               : 6 channels
Channel layout                           : L R C LFE Ls Rs
Sampling rate                            : 48.0 kHz
Frame rate                               : 31.250 FPS (1536 SPF)
Bit depth                                : 16 bits
Compression mode                         : Lossy
Stream size                              : 588 MiB (5%)
Language                                 : Thai
Service kind                             : Complete Main
Default                                  : Yes
Forced                                   : No

Text #1
ID                                       : 5
Format                                   : PGS
Muxing mode                              : zlib
Codec ID                                 : S_HDMV/PGS
Codec ID/Info                            : Picture based subtitle format used on BDs/HD-DVDs
Duration                                 : 1 h 57 min
Bit rate                                 : 32.9 kb/s
Count of elements                        : 2986
Stream size                              : 27.7 MiB (0%)
Language                                 : English
Default                                  : Yes
Forced                                   : No

Text #2
ID                                       : 6
Format                                   : PGS
Muxing mode                              : zlib
Codec ID                                 : S_HDMV/PGS
Codec ID/Info                            : Picture based subtitle format used on BDs/HD-DVDs
Duration                                 : 2 h 7 min
Bit rate                                 : 19.8 kb/s
Count of elements                        : 2166
Stream size                              : 18.1 MiB (0%)
Language                                 : Thai
Default                                  : No
Forced                                   : No

Menu
00:00:00.000                             : :Chapter 01
00:09:24.397                             : :Chapter 02
00:16:13.305                             : :Chapter 03
00:24:20.625                             : :Chapter 04
00:31:24.591                             : :Chapter 05
00:35:53.067                             : :Chapter 06
00:41:27.818                             : :Chapter 07
00:44:53.816                             : :Chapter 08
00:50:16.805                             : :Chapter 09
00:54:21.174                             : :Chapter 10
01:00:51.397                             : :Chapter 11
01:07:12.069                             : :Chapter 12
01:11:12.851                             : :Chapter 13
01:17:37.736                             : :Chapter 14
01:25:25.620                             : :Chapter 15
01:33:30.396                             : :Chapter 16
01:39:28.545                             : :Chapter 17
01:47:58.263                             : :Chapter 18
01:52:11.558                             : :Chapter 19
01:58:33.523                             : :Chapter 20



http://www.mekafile.com/dl.php?f=4gc625bScfhT
ไฟล์เกม VIP เกมไหนมีปัญหาโหลดไม่ใด้ PM ส่งข้อความถึง Admin
ไฟล์เก่าเว็บ RabbitFile สามารถโหลดใด้เพียงเปลี่ยน Url จาก http://www.rabbitfile.com/....... เป็น http://www.mekafile.com/........