ผู้เขียน หัวข้อ: [* ใหม่ร้อนๆ ชนโรง *] Shazam! (2019) : ชาแซม! -Encode.H.264.720p. [หนังซูม]-[พากย์ไทยโรง]  (อ่าน 297 ครั้ง)

0 สมาชิก และ 1 บุคคลทั่วไป กำลังดูหัวข้อนี้

ออฟไลน์ BLG-Game

  • Administrator
  • Hero Member
  • *********
  • กระทู้: 2312
    • ดูรายละเอียด
    • www.blggames.com


Shazam!
ประเภท : ภาพยนตร์
แนว : Action, Fantasy, Sci-Fi
ผู้กำกับ : เดวิด เอฟ แซนด์เบิร์ก
นักแสดง : อาเชอร์ แอนเจิ้ล, ซาคารี เลวี, มาร์ค สตรอง, แจ็ค ดีแลน เกรเซอร์

เรื่องย่อ
เราทุกคนล้วนมีซูเปอร์ฮีโร่อยู่ในตัวเรา แค่ต้องอาศัยเวทมนตร์เพื่อดึงมันออกมาสักหน่อย แต่สำหรับ บิลลี่ แบทสัน (แอชเชอร์ แองเจล) แค่ตะโกนออกมาคำเดียวว่า ชาแซม! จากเด็กในบ้านอุปถัมภ์วัย 14 ปี ก็สามารถกลายเป็นซูเปอร์ฮีโร่ชาแซม (แซ็คคารี่ ลีวาย) พ่อมดผู้อ่อนโยนในอดีตได้ แต่เขายังคงมีหัวใจที่เป็นเด็กแม้จะอยู่ในร่างของขี้เมาผู้น่าเกรงขาม ชาแซมในร่างผู้ใหญ่ทำให้เขาได้ใช้ชีวิตแบบเด็กวัยรุ่นที่มีพลังวิเศษ คือ สนุกสนานไปกับมัน! เขาบินได้มั้ย? มองเห็นภาพแบบเอ็กซ์เรย์ได้หรือเปล่า? ยิงสายฟ้าออกมาจากมือได้มั้ย? จะผ่านบททดสอบทางสังคมของเขาได้หรือเปล่า? ชาแซมต้องมีการทดสอบขีดจำกัดความสามารถหลายอย่างด้วยความสนุกแบบเด็ก ๆ แต่เขาต้องคุมพลังพวกนี้ให้ได้โดยเร็ว เพื่อต่อสู้กับพลังความชั่วร้ายของ ดร.แธดดีอุส ไซวาน่า (มาร์ค สตรอง)





อ้างถึง
Format                                   : Matroska
Format version                           : Version 4
File size                                : 1.28 GiB
Duration                                 : 2 h 0 min
Overall bit rate                         : 1 521 kb/s
Encoded date                             : UTC 2019-04-08 01:56:24
Writing application                      : mkvmerge v29.0.0 ('Like It Or Not') 64-bit
Writing library                          : libebml v1.3.6 + libmatroska v1.4.9

Video
ID                                       : 1
Format                                   : AVC
Format/Info                              : Advanced Video Codec
Format profile                           : High@L3.1
Format settings                          : CABAC / 1 Ref Frames
Format settings, CABAC                   : Yes
Format settings, RefFrames               : 1 frame
Format settings, GOP                     : M=1, N=60
Codec ID                                 : V_MPEG4/ISO/AVC
Duration                                 : 2 h 0 min
Bit rate                                 : 1 390 kb/s
Width                                    : 1 280 pixels
Height                                   : 534 pixels
Display aspect ratio                     : 2.40:1
Frame rate mode                          : Constant
Frame rate                               : 29.970 (30000/1001) FPS
Color space                              : YUV
Chroma subsampling                       : 4:2:0
Bit depth                                : 8 bits
Scan type                                : Progressive
Bits/(Pixel*Frame)                       : 0.068
Stream size                              : 1.17 GiB (91%)
Writing library                          : x264 core 155 r2901 7d0ff22
Default                                  : Yes
Forced                                   : No
Color range                              : Limited
Color primaries                          : BT.709
Transfer characteristics                 : BT.709
Matrix coefficients                      : BT.709

Audio
ID                                       : 2
Format                                   : AAC LC
Format/Info                              : Advanced Audio Codec Low Complexity
Codec ID                                 : A_AAC-2
Duration                                 : 2 h 0 min
Bit rate                                 : 128 kb/s
Channel(s)                               : 2 channels
Channel layout                           : L R
Sampling rate                            : 44.1 kHz
Frame rate                               : 43.066 FPS (1024 SPF)
Compression mode                         : Lossy
Stream size                              : 110 MiB (8%)
Language                                 : Thai
Default                                  : Yes
Forced                                   : No



http://www.mekafile.com/dl.php?f=MTb707bSvCWO

ไฟล์เกม VIP เกมไหนมีปัญหาโหลดไม่ใด้ PM ส่งข้อความถึง Admin
ไฟล์เก่าเว็บ RabbitFile สามารถโหลดใด้เพียงเปลี่ยน Url จาก http://www.rabbitfile.com/....... เป็น http://www.mekafile.com/........