ผู้เขียน หัวข้อ: Green Book (2018) : กรีนบุ๊ค [พากย์ไทย 5.1 + เสียงอังกฤษ TrueHD.7.1+Atmos] • 4K MINI HQ 2160p  (อ่าน 63 ครั้ง)

0 สมาชิก และ 1 บุคคลทั่วไป กำลังดูหัวข้อนี้

ออนไลน์ BLG-Game

  • Administrator
  • Hero Member
  • *********
  • กระทู้: 2216
    • ดูรายละเอียด
    • www.blggames.com


หนังที่คนดูตกหลุมรักเป็นเอกฉันท์
โชเฟอร์ (ตัวขาว) ไฮโซ (ตัวดำ) จุดหมายเดียวกันคือมิตรภาพ
สร้างจากแรงบันดาลใจ จากมิตรภาพที่เกิดขึ้นจริง

หนังดีการันตีด้วย Top Rated Movies 125 | Won 3 Oscars.

••• 4K MINI HQ 2160p •••



Green Book_(2018)
  ผลงานที่นำแสดงโดยสองนักแสดงฝีมือคุณภาพ วิกโก มอร์เทนเซน ผู้เข้าชิงสองรางวัลออสการ์จาก Eastern Promises (2007) และ Captain Fantastic (2016)
ร่วมด้วย มาเฮอร์ชาลา อาลี เจ้าของรางวัลออสการ์นักแสดงสมทบชายยอดเยี่ยมจาก Moonlight (2017) เล่าถึงเรื่องราวของสองคู่หูต่างขั้ว
ที่จับพลัดจับผลูตระเวนเดินทางไปทั่วตอนใต้ของอเมริกาด้วยกัน โทนี ลิป (วิกโก มอร์เทนเซน) พี่ล่าขาใหญ่เชื้อสายอิตาเลียน-อเมริกันจากย่านบรองซ์ในนิวยอร์ก
ต้องมาเป็นคนขับรถให้ ดอน เชอร์ลีย์ (มาเฮอร์ชาลา อาลี) นักเปียโนคลาสสิกผิวสีระดับโลก ระหว่างที่เขาออกเดินสายขึ้นแสดงในยุค 60 สิ่งเดียวที่นำทางทั้งคู่คือ สมุดปกเขียว
ที่บอกสถานที่ที่เป็นมิตรกับคนผิวสี พวกเขาต้องฝ่าทั้งกำแพงแห่งสีผิว ภัยอันตรายต่างๆ เช่นเดียวกับน้ำใจจากเพื่อนมนุษย์ในการเดินทางครั้งสำคัญนี้!!!





อ้างถึง
Format                                   : Matroska
Format version                           : Version 4
File size                                : 8.91 GiB
Duration                                 : 2 h 10 min
Overall bit rate mode                    : Variable
Overall bit rate                         : 9 804 kb/s
Encoded date                             : UTC 2019-04-02 02:27:35
Writing application                      : mkvmerge v32.0.0 ('Astral Progressions') 64-bit
Writing library                          : libebml v1.3.7 + libmatroska v1.5.0
Cover                                    : Yes
Attachments                              : cover

Video
ID                                       : 1
Format                                   : HEVC
Format/Info                              : High Efficiency Video Coding
Format profile                           : Main 10@L5@Main
Codec ID                                 : V_MPEGH/ISO/HEVC
Duration                                 : 2 h 10 min
Bit rate                                 : 5 072 kb/s
Width                                    : 3 840 pixels
Height                                   : 2 160 pixels
Display aspect ratio                     : 16:9
Frame rate mode                          : Constant
Frame rate                               : 23.976 (24000/1001) FPS
Color space                              : YUV
Chroma subsampling                       : 4:2:0
Bit depth                                : 10 bits
Bits/(Pixel*Frame)                       : 0.026
Stream size                              : 4.61 GiB (52%)
Language                                 : English
Default                                  : Yes
Forced                                   : No
Color range                              : Limited
Color primaries                          : BT.2020
Transfer characteristics                 : PQ
Matrix coefficients                      : BT.2020 non-constant

Audio #1
ID                                       : 2
Format                                   : MLP FBA 16-ch
Format/Info                              : Meridian Lossless Packing FBA with 16-channel presentation
Commercial name                          : Dolby TrueHD with Dolby Atmos
Codec ID                                 : A_TRUEHD
Duration                                 : 2 h 10 min
Bit rate mode                            : Variable
Bit rate                                 : 3 784 kb/s
Maximum bit rate                         : 7 086 kb/s
Channel(s)                               : 8 channels
Channel layout                           : L R C LFE Ls Rs Lb Rb
Sampling rate                            : 48.0 kHz
Frame rate                               : 1 200.000 FPS (40 SPF)
Compression mode                         : Lossless
Stream size                              : 3.44 GiB (39%)
Title                                    : TrueHD Atmos 7.1
Language                                 : English
Default                                  : No
Forced                                   : No
Number of dynamic objects                : 11
Bed channel count                        : 1 channel
Bed channel configuration                : LFE

Audio #2
ID                                       : 3
Format                                   : AC-3
Format/Info                              : Audio Coding 3
Commercial name                          : Dolby Digital
Codec ID                                 : A_AC3
Duration                                 : 2 h 10 min
Bit rate mode                            : Constant
Bit rate                                 : 448 kb/s
Channel(s)                               : 6 channels
Channel layout                           : L R C LFE Ls Rs
Sampling rate                            : 48.0 kHz
Frame rate                               : 31.250 FPS (1536 SPF)
Bit depth                                : 16 bits
Compression mode                         : Lossy
Stream size                              : 417 MiB (5%)
Title                                    : AC3 5.1
Language                                 : English
Service kind                             : Complete Main
Default                                  : No
Forced                                   : No

Audio #3
ID                                       : 4
Format                                   : AC-3
Format/Info                              : Audio Coding 3
Commercial name                          : Dolby Digital
Codec ID                                 : A_AC3
Duration                                 : 2 h 10 min
Bit rate mode                            : Constant
Bit rate                                 : 384 kb/s
Channel(s)                               : 6 channels
Channel layout                           : L R C LFE Ls Rs
Sampling rate                            : 48.0 kHz
Frame rate                               : 31.250 FPS (1536 SPF)
Bit depth                                : 16 bits
Compression mode                         : Lossy
Stream size                              : 357 MiB (4%)
Title                                    : AC3 5.1
Language                                 : Thai
Service kind                             : Complete Main
Default                                  : Yes
Forced                                   : Yes

Text #1
ID                                       : 5
Format                                   : PGS
Muxing mode                              : zlib
Codec ID                                 : S_HDMV/PGS
Codec ID/Info                            : Picture based subtitle format used on BDs/HD-DVDs
Duration                                 : 2 h 7 min
Bit rate                                 : 48.2 kb/s
Count of elements                        : 3945
Stream size                              : 44.1 MiB (0%)
Title                                    : English (SDH)
Language                                 : English
Default                                  : Yes
Forced                                   : No

Text #2
ID                                       : 6
Format                                   : VobSub
Muxing mode                              : zlib
Codec ID                                 : S_VOBSUB
Codec ID/Info                            : Picture based subtitle format used on DVDs
Duration                                 : 2 h 2 min
Bit rate                                 : 8 348 b/s
Count of elements                        : 1504
Stream size                              : 7.29 MiB (0%)
Language                                 : Thai
Default                                  : No
Forced                                   : No

Text #3
ID                                       : 7
Format                                   : PGS
Muxing mode                              : zlib
Codec ID                                 : S_HDMV/PGS
Codec ID/Info                            : Picture based subtitle format used on BDs/HD-DVDs
Duration                                 : 2 h 2 min
Bit rate                                 : 39.0 kb/s
Count of elements                        : 3008
Stream size                              : 34.1 MiB (0%)
Language                                 : Thai
Default                                  : No
Forced                                   : No

Menu
00:00:00.000                             : en:Chapter 01
00:05:43.009                             : en:Chapter 02
00:11:50.043                             : en:Chapter 03
00:18:17.805                             : en:Chapter 04
00:23:46.675                             : en:Chapter 05
00:28:37.382                             : en:Chapter 06
00:34:38.785                             : en:Chapter 07
00:41:13.304                             : en:Chapter 08
00:46:44.593                             : en:Chapter 09
00:54:19.173                             : en:Chapter 10
01:02:42.342                             : en:Chapter 11
01:10:42.655                             : en:Chapter 12
01:16:16.155                             : en:Chapter 13
01:24:30.274                             : en:Chapter 14
01:30:37.724                             : en:Chapter 15
01:36:53.266                             : en:Chapter 16
01:44:56.081                             : en:Chapter 17
01:51:12.124                             : en:Chapter 18
01:54:38.872                             : en:Chapter 19
02:02:25.505                             : en:Chapter 20



http://www.mekafile.com/dl.php?f=cP8d4fbSkP2Z
« แก้ไขครั้งสุดท้าย: เมษายน 08, 2019, 06:38:25 PM by Webmaster »
ไฟล์เกม VIP เกมไหนมีปัญหาโหลดไม่ใด้ PM ส่งข้อความถึง Admin
ไฟล์เก่าเว็บ RabbitFile สามารถโหลดใด้เพียงเปลี่ยน Url จาก http://www.rabbitfile.com/....... เป็น http://www.mekafile.com/........