ผู้เขียน หัวข้อ: [* ใหม่ร้อนๆ ชนโรง *] Avengers: Endgame (2019) อเวนเจอร์ส เผด็จศึก [720p] • [* HDCAM.WEB-DL.THR2.0.H264 *] •[พากย์ไทยโรง 2.0 + เสียงอังกฤษ 2.0]  (อ่าน 413 ครั้ง)

0 สมาชิก และ 1 บุคคลทั่วไป กำลังดูหัวข้อนี้

ออนไลน์ BLG-Game

  • Administrator
  • Hero Member
  • *********
  • กระทู้: 2200
    • ดูรายละเอียด
    • www.blggames.com



บทสรุปสุดยิ่งใหญ่ของ THE INFINITY SAGA มหากาพย์การต่อสู้ที่ถูกเล่าขานมากว่า 11 ปี ผ่านภาพยนตร์กว่า 22 เรื่องของ MARVEL CINEMATIC UNIVERSE
เรื่องราวการปิดจักรวาลมาร์เวลเฟส 3 เหตุการณ์ภายหลังจากที่ธานอสดีดนิ้วล้างครึ่งจักรวาล เหล่าฮีโร่ที่เหลือรอดจะหาทางกอบกู้จักรวาลนี้คืนมาได้อย่างไร

••• 720p.HDCAM.WEB-DL.THR2.0.H264 •••
พากย์ไทยโรง 2.0 + เสียงอังกฤษ 2.0 + บรรยายจีนฝัง




เรื่องย่อ
Avengers: ENDGAME  เรื่องราวการปิดจักรวาลมาร์เวลเฟส 3 เหตุการณ์ภายหลังจากที่ธานอสดีดนิ้วล้างครึ่งจักรวาล เหล่าฮีโร่ที่เหลือรอดจะหาทางกอบกู้จักรวาลนี้คืนมาได้อย่างไร โดยในภาคนี้จะมีตัวเด็ดอย่างกัปตันมาร์เวลมาร่วมเสริมทัพด้วย








อ้างถึง
Format                                   : Matroska
Format version                           : Version 4
File size                                : 2.99 GiB
Duration                                 : 2 h 53 min
Overall bit rate                         : 2 472 kb/s
Movie name                               : Avengers Endgame 2019 Full Movie No Ads 720p HDCAM [fuck_1XBET]
Encoded date                             : UTC 2019-04-25 08:41:52
Writing application                      : mkvmerge v9.9.0 ('Pick Up') 64bit
Writing library                          : libebml v1.3.4 + libmatroska v1.4.5

Video
ID                                       : 1
Format                                   : AVC
Format/Info                              : Advanced Video Codec
Format profile                           : Main@L3.1
Format settings                          : CABAC / 4 Ref Frames
Format settings, CABAC                   : Yes
Format settings, RefFrames               : 4 frames
Codec ID                                 : V_MPEG4/ISO/AVC
Duration                                 : 2 h 53 min
Bit rate                                 : 2 116 kb/s
Width                                    : 1 280 pixels
Height                                   : 720 pixels
Display aspect ratio                     : 2.529
Frame rate mode                          : Constant
Frame rate                               : 29.970 FPS
Color space                              : YUV
Chroma subsampling                       : 4:2:0
Bit depth                                : 8 bits
Scan type                                : Progressive
Bits/(Pixel*Frame)                       : 0.077
Stream size                              : 2.56 GiB (86%)
Title                                    : Avengers Endgame 2019 Full Movie No Ads 720p HDCAM [fuck_1XBET]
Writing library                          : x264 core 157 r2935 545de2f
Encoding settings                        : cabac=1 / ref=1 / deblock=1:0:0 / analyse=0x1:0x111 / me=hex / subme=2 / psy=1 / psy_rd=1.00:0.00 / mixed_ref=0 / me_range=16 / chroma_me=1 / trellis=0 / 8x8dct=0 / cqm=0 / deadzone=21,11 / fast_pskip=1 / chroma_qp_offset=0 / threads=22 / lookahead_threads=5 / sliced_threads=0 / nr=0 / decimate=1 / interlaced=0 / bluray_compat=0 / constrained_intra=0 / bframes=3 / b_pyramid=2 / b_adapt=1 / b_bias=0 / direct=1 / weightb=1 / open_gop=0 / weightp=1 / keyint=300 / keyint_min=30 / scenecut=40 / intra_refresh=0 / rc_lookahead=10 / rc=crf / mbtree=1 / crf=23.0 / qcomp=0.60 / qpmin=0 / qpmax=69 / qpstep=4 / vbv_maxrate=14000 / vbv_bufsize=14000 / crf_max=0.0 / nal_hrd=none / filler=0 / ip_ratio=1.40 / aq=1:1.00
Default                                  : Yes
Forced                                   : No
Color range                              : Limited
Color primaries                          : BT.709
Transfer characteristics                 : BT.709
Matrix coefficients                      : BT.709

Audio #1
ID                                       : 2
Format                                   : AAC LC
Format/Info                              : Advanced Audio Codec Low Complexity
Codec ID                                 : A_AAC-2
Duration                                 : 2 h 53 min
Bit rate                                 : 161 kb/s
Channel(s)                               : 2 channels
Channel layout                           : L R
Sampling rate                            : 48.0 kHz
Frame rate                               : 46.875 FPS (1024 SPF)
Compression mode                         : Lossy
Delay relative to video                  : -21 ms
Stream size                              : 199 MiB (6%)
Title                                    : Avengers Endgame 2019 Full Movie No Ads 720p HDCAM [fuck_1XBET]
Language                                 : English
Default                                  : Yes
Forced                                   : No

Audio #2
ID                                       : 3
Format                                   : AC-3
Format/Info                              : Audio Coding 3
Commercial name                          : Dolby Digital
Codec ID                                 : A_AC3
Duration                                 : 2 h 53 min
Bit rate mode                            : Constant
Bit rate                                 : 192 kb/s
Channel(s)                               : 2 channels
Channel layout                           : L R
Sampling rate                            : 48.0 kHz
Frame rate                               : 31.250 FPS (1536 SPF)
Bit depth                                : 16 bits
Compression mode                         : Lossy
Delay relative to video                  : -21 ms
Stream size                              : 238 MiB (8%)
Language                                 : Thai
Service kind                             : Complete Main
Default                                  : No
Forced                                   : No




http://www.mekafile.com/dl.php?f=Jl913dbThYEn
ไฟล์เกม VIP เกมไหนมีปัญหาโหลดไม่ใด้ PM ส่งข้อความถึง Admin
ไฟล์เก่าเว็บ RabbitFile สามารถโหลดใด้เพียงเปลี่ยน Url จาก http://www.rabbitfile.com/....... เป็น http://www.mekafile.com/........