ผู้เขียน หัวข้อ: Fury (2014) วันปฐพีเดือด [พากย์ไทย 5.1 + เสียงอังกฤษ DTS-XLL] - 4K HQ 2160P  (อ่าน 95 ครั้ง)

0 สมาชิก และ 1 บุคคลทั่วไป กำลังดูหัวข้อนี้

ออนไลน์ BLG-Game

  • Administrator
  • Hero Member
  • *********
  • กระทู้: 2216
    • ดูรายละเอียด
    • www.blggames.com


••• 4K HQ 2160P •••
[พากย์ไทย 5.1 + เสียงอังกฤษ DTS-XLL] [บรรยายไทย + อังกฤษ]



     ภาพยนตร์แอ็คชั่นเรื่องยิ่งใหญ่ส่งท้ายปี 2014 ทุ่มทุนสร้างกว่า 100 ล้านเหรียญสหรัฐ สร้างจากเหตุการณ์จริงในปีค.ศ. 1945 ในช่วงสงครามโลกครั้งที่สอง เรื่องราวของทหาร 5 คนในรถถังประจัญบานที่ชื่อ “ฟิวรี่” ที่ทำภารกิจสำคัญบุกตะลุยฝ่ากองทัพนาซี ซึ่งผลลัพธ์ก็กลายเป็นจุดเปลี่ยนสำคัญที่ทำให้กองทัพสหรัฐเป็นฝ่ายที่ได้รับชัยชนะในสงครามโลก





อ้างถึง
Format                                   : MPEG-4
Format profile                           : Base Media / Version 2
Codec ID                                 : mp42 (isom/iso2/avc1/mp41)
File size                                : 19.8 GiB
Duration                                 : 2 h 14 min
Overall bit rate mode                    : Variable
Overall bit rate                         : 21.0 Mb/s
Movie name                               : WWW.FWIPTV.NET
Encoded date                             : UTC 2018-10-31 17:29:20
Tagged date                              : UTC 2018-10-31 17:29:20
Writing application                      : HandBrake 1.1.2 2018090500

Video
ID                                       : 1
Format                                   : AVC
Format/Info                              : Advanced Video Codec
Format profile                           : High@L4.1
Format settings                          : CABAC / 1 Ref Frames
Format settings, CABAC                   : Yes
Format settings, RefFrames               : 1 frame
Codec ID                                 : avc1
Codec ID/Info                            : Advanced Video Coding
Duration                                 : 2 h 14 min
Bit rate                                 : 15.0 Mb/s
Width                                    : 3 840 pixels
Height                                   : 1 606 pixels
Display aspect ratio                     : 2.40:1
Frame rate mode                          : Variable
Frame rate                               : 23.976 (24000/1001) FPS
Minimum frame rate                       : 23.974 FPS
Maximum frame rate                       : 23.981 FPS
Color space                              : YUV
Chroma subsampling                       : 4:2:0
Bit depth                                : 8 bits
Scan type                                : Progressive
Bits/(Pixel*Frame)                       : 0.101
Stream size                              : 13.9 GiB (70%)
Writing library                          : x264 core 155 r2901 7d0ff22
Encoding settings                        : cabac=1 / ref=1 / deblock=1:0:0 / analyse=0x3:0x113 / me=hex / subme=7 / psy=1 / psy_rd=1.00:0.00 / mixed_ref=0 / me_range=16 / chroma_me=1 / trellis=1 / 8x8dct=1 / cqm=0 / deadzone=21,11 / fast_pskip=1 / chroma_qp_offset=-2 / threads=12 / lookahead_threads=2 / sliced_threads=0 / nr=0 / decimate=1 / interlaced=0 / bluray_compat=0 / constrained_intra=0 / bframes=0 / weightp=2 / keyint=240 / keyint_min=24 / scenecut=40 / intra_refresh=0 / rc_lookahead=40 / rc=abr / mbtree=1 / bitrate=15000 / ratetol=1.0 / qcomp=0.60 / qpmin=0 / qpmax=69 / qpstep=4 / vbv_maxrate=62500 / vbv_bufsize=78125 / nal_hrd=none / filler=0 / ip_ratio=1.40 / aq=1:1.00
Encoded date                             : UTC 2018-10-31 17:29:20
Tagged date                              : UTC 2018-10-31 17:29:20
Color range                              : Limited
Color primaries                          : BT.709
Transfer characteristics                 : BT.709
Matrix coefficients                      : BT.709
Codec configuration box                  : avcC

Audio #1
ID                                       : 2
Format                                   : AAC LC
Format/Info                              : Advanced Audio Codec Low Complexity
Codec ID                                 : mp4a-40-2
Duration                                 : 2 h 12 min
Bit rate mode                            : Variable
Bit rate                                 : 448 kb/s
Channel(s)                               : 6 channels
Channel layout                           : C L R Ls Rs LFE
Sampling rate                            : 48.0 kHz
Frame rate                               : 46.875 FPS (1024 SPF)
Compression mode                         : Lossy
Stream size                              : 424 MiB (2%)
Title                                    : Surround / Surround
Language                                 : Thai
Default                                  : Yes
Alternate group                          : 1
Encoded date                             : UTC 2018-10-31 17:29:20
Tagged date                              : UTC 2018-10-31 17:29:20

Audio #2
ID                                       : 3
Format                                   : AAC LC
Format/Info                              : Advanced Audio Codec Low Complexity
Codec ID                                 : mp4a-40-2
Duration                                 : 2 h 14 min
Bit rate mode                            : Variable
Bit rate                                 : 447 kb/s
Channel(s)                               : 6 channels
Channel layout                           : C L R Ls Rs LFE
Sampling rate                            : 48.0 kHz
Frame rate                               : 46.875 FPS (1024 SPF)
Compression mode                         : Lossy
Stream size                              : 431 MiB (2%)
Title                                    : Surround / Surround
Language                                 : English
Default                                  : No
Alternate group                          : 1
Encoded date                             : UTC 2018-10-31 17:29:20
Tagged date                              : UTC 2018-10-31 17:29:20

Audio #3
ID                                       : 4
Format                                   : DTS
Format/Info                              : Digital Theater Systems
Codec ID                                 : mp4a-A9
Duration                                 : 2 h 14 min
Bit rate mode                            : Constant
Bit rate                                 : 1 509 kb/s
Channel(s)                               : 6 channels
Channel layout                           : C L R Ls Rs LFE
Sampling rate                            : 48.0 kHz
Frame rate                               : 93.750 FPS (512 SPF)
Bit depth                                : 24 bits
Compression mode                         : Lossy
Stream size                              : 1.42 GiB (7%)
Title                                    : Surround / Surround
Language                                 : Thai
Default                                  : No
Alternate group                          : 1
Encoded date                             : UTC 2018-10-31 17:29:20
Tagged date                              : UTC 2018-10-31 17:29:20

Audio #4
ID                                       : 5
Format                                   : DTS XLL
Format/Info                              : Digital Theater Systems
Commercial name                          : DTS-HD Master Audio
Codec ID                                 : mp4a-A9
Duration                                 : 2 h 14 min
Bit rate mode                            : Variable
Bit rate                                 : 3 832 kb/s
Channel(s)                               : 8 channels
Channel layout                           : C L R LFE Lb Rb Lss Rss
Sampling rate                            : 48.0 kHz
Frame rate                               : 93.750 FPS (512 SPF)
Bit depth                                : 24 bits
Compression mode                         : Lossless
Stream size                              : 3.60 GiB (18%)
Title                                    : Surround / Surround
Language                                 : English
Default                                  : No
Alternate group                          : 1
Encoded date                             : UTC 2018-10-31 17:29:20
Tagged date                              : UTC 2018-10-31 17:29:20

Text #1
ID                                       : 6
Format                                   : VobSub
Codec ID                                 : mp4s-E0
Codec ID/Info                            : The same subtitle format used on DVDs
Duration                                 : 2 h 4 min
Bit rate mode                            : Variable
Bit rate                                 : 7 781 b/s
Stream size                              : 6.91 MiB (0%)
Language                                 : Thai
Default                                  : Yes
Forced                                   : No
Alternate group                          : 3
Encoded date                             : UTC 2018-10-31 17:29:20
Tagged date                              : UTC 2018-10-31 17:29:20

Text #2
ID                                       : 7
Format                                   : VobSub
Codec ID                                 : mp4s-E0
Codec ID/Info                            : The same subtitle format used on DVDs
Duration                                 : 2 h 4 min
Bit rate mode                            : Variable
Bit rate                                 : 8 329 b/s
Stream size                              : 7.40 MiB (0%)
Language                                 : English
Default                                  : No
Forced                                   : No
Alternate group                          : 3
Encoded date                             : UTC 2018-10-31 17:29:20
Tagged date                              : UTC 2018-10-31 17:29:20



http://www.mekafile.com/dl.php?f=r9f413bSN0Pm
ไฟล์เกม VIP เกมไหนมีปัญหาโหลดไม่ใด้ PM ส่งข้อความถึง Admin
ไฟล์เก่าเว็บ RabbitFile สามารถโหลดใด้เพียงเปลี่ยน Url จาก http://www.rabbitfile.com/....... เป็น http://www.mekafile.com/........