ผู้เขียน หัวข้อ: 12 Strong (2018) 12 ตายไม่เป็น [พากย์ไทย 5.1 + เสียงอังกฤษ DTS-XLL] - 4K HQ 2160P  (อ่าน 136 ครั้ง)

0 สมาชิก และ 1 บุคคลทั่วไป กำลังดูหัวข้อนี้

ออนไลน์ BLG-Game

  • Administrator
  • Hero Member
  • *********
  • กระทู้: 2216
    • ดูรายละเอียด
    • www.blggames.com


เรื่องย่อ
เรื่องราวของหน่วยรบพิเศษ 12 คน ที่ได้รับคัดเลือกจากรัฐบาลสหรัฐเพื่อปฏิบัติการลับสุดยอดในอัฟกานิสถานในช่วงหลังจากเกิดเหตุการณ์วินาศกรรมช็อคโลกที่นิวยอร์ค ในวันที่ 11 กันยายน ปี 2001 เพียงไม่กี่วัน โดยหน้าที่ของพวกเขาคือ ลักลอบเขาไปในดินแดนที่ปกครองโดย กลุ่มตาลีบันที่เชื่อกันว่าให้การสนับสนุนองค์การก่อการร้าย อัลเคดาห์ ที่นำโดยโอซามาบินลาเดน เพื่อประสานกับกลุ่มพันธมิตรทางเหนือในการทำสงครามภาคพื้นดินกับฝ่ายตาลีบัน ก่อนที่ รัฐบาลอเมริกาจะปฏิบัติการปูพรมทางอากาศต่อไป อย่างไรก็ตามด้วยสภาพภูมิศาสตร์ที่เต็มไปด้วยภูเขา พวกเขาจำต้องใช้ยุทธวีธีการรบแบบโบราณนั่นคือการใช้ม้าในการเดินทางผ่านเขตของศัตรู เพื่อยึดมาซาร์ อี ชารีฟ ซึ่งเคยเป็นฐานที่มั่นของกลุ่มพันธมิตรทางเหนือ คืนมาจากกลุ่มตาลีบันให้ได้ นี่จึงกลายเป็นที่มาของวีกรรมที่โลกลืมของเหล่านักรบบนหลังม้าทั้ง 12 คน





อ้างถึง
Format                                   : MPEG-4
Format profile                           : Base Media / Version 2
Codec ID                                 : mp42 (isom/iso2/avc1/mp41)
File size                                : 17.0 GiB
Duration                                 : 2 h 10 min
Overall bit rate mode                    : Variable
Overall bit rate                         : 18.6 Mb/s
Movie name                               : WWW.FWIPTV.NET
Encoded date                             : UTC 2018-09-21 16:00:11
Tagged date                              : UTC 2018-09-21 16:00:11
Writing application                      : HandBrake 1.1.2 2018090500

Video
ID                                       : 1
Format                                   : AVC
Format/Info                              : Advanced Video Codec
Format profile                           : High@L4.1
Format settings                          : CABAC / 1 Ref Frames
Format settings, CABAC                   : Yes
Format settings, RefFrames               : 1 frame
Codec ID                                 : avc1
Codec ID/Info                            : Advanced Video Coding
Duration                                 : 2 h 10 min
Bit rate                                 : 15.0 Mb/s
Width                                    : 3 840 pixels
Height                                   : 1 600 pixels
Display aspect ratio                     : 2.40:1
Frame rate mode                          : Constant
Frame rate                               : 24.000 FPS
Color space                              : YUV
Chroma subsampling                       : 4:2:0
Bit depth                                : 8 bits
Scan type                                : Progressive
Bits/(Pixel*Frame)                       : 0.102
Stream size                              : 13.2 GiB (78%)
Writing library                          : x264 core 155 r2901 7d0ff22
Encoding settings                        : cabac=1 / ref=1 / deblock=1:0:0 / analyse=0x3:0x113 / me=hex / subme=7 / psy=1 / psy_rd=1.00:0.00 / mixed_ref=0 / me_range=16 / chroma_me=1 / trellis=1 / 8x8dct=1 / cqm=0 / deadzone=21,11 / fast_pskip=1 / chroma_qp_offset=-2 / threads=12 / lookahead_threads=2 / sliced_threads=0 / nr=0 / decimate=1 / interlaced=0 / bluray_compat=0 / constrained_intra=0 / bframes=0 / weightp=2 / keyint=240 / keyint_min=24 / scenecut=40 / intra_refresh=0 / rc_lookahead=40 / rc=abr / mbtree=1 / bitrate=15000 / ratetol=1.0 / qcomp=0.60 / qpmin=0 / qpmax=69 / qpstep=4 / vbv_maxrate=62500 / vbv_bufsize=78125 / nal_hrd=none / filler=0 / ip_ratio=1.40 / aq=1:1.00
Encoded date                             : UTC 2018-09-21 16:00:11
Tagged date                              : UTC 2018-09-21 16:00:11
Color range                              : Limited
Color primaries                          : BT.709
Transfer characteristics                 : BT.709
Matrix coefficients                      : BT.709
Codec configuration box                  : avcC

Audio #1
ID                                       : 2
Format                                   : AAC Main
Format/Info                              : Advanced Audio Codec
Codec ID                                 : mp4a-40-1
Duration                                 : 2 h 10 min
Bit rate mode                            : Variable
Bit rate                                 : 396 kb/s
Channel(s)                               : 6 channels
Channel layout                           : C L R Ls Rs LFE
Sampling rate                            : 48.0 kHz
Frame rate                               : 46.875 FPS (1024 SPF)
Compression mode                         : Lossy
Stream size                              : 369 MiB (2%)
Title                                    : Surround / Surround
Language                                 : Thai
Default                                  : Yes
Alternate group                          : 1
Encoded date                             : UTC 2018-09-21 16:00:11
Tagged date                              : UTC 2018-09-21 16:00:11

Audio #2
ID                                       : 3
Format                                   : AAC LC
Format/Info                              : Advanced Audio Codec Low Complexity
Codec ID                                 : mp4a-40-2
Duration                                 : 2 h 10 min
Bit rate mode                            : Variable
Bit rate                                 : 448 kb/s
Channel(s)                               : 6 channels
Channel layout                           : C L R Ls Rs LFE
Sampling rate                            : 48.0 kHz
Frame rate                               : 46.875 FPS (1024 SPF)
Compression mode                         : Lossy
Stream size                              : 419 MiB (2%)
Title                                    : Surround / Surround
Language                                 : English
Default                                  : No
Alternate group                          : 1
Encoded date                             : UTC 2018-09-21 16:00:11
Tagged date                              : UTC 2018-09-21 16:00:11

Audio #3
ID                                       : 4
Format                                   : AC-3
Format/Info                              : Audio Coding 3
Commercial name                          : Dolby Digital
Codec ID                                 : ac-3
Duration                                 : 2 h 10 min
Bit rate mode                            : Constant
Bit rate                                 : 448 kb/s
Channel(s)                               : 6 channels
Channel layout                           : L R C LFE Ls Rs
Sampling rate                            : 48.0 kHz
Frame rate                               : 31.250 FPS (1536 SPF)
Bit depth                                : 16 bits
Compression mode                         : Lossy
Stream size                              : 417 MiB (2%)
Title                                    : Surround / Surround
Language                                 : Thai
Service kind                             : Complete Main
Default                                  : No
Alternate group                          : 1
Encoded date                             : UTC 2018-09-21 16:00:11
Tagged date                              : UTC 2018-09-21 16:00:11

Audio #4
ID                                       : 5
Format                                   : DTS XLL
Format/Info                              : Digital Theater Systems
Commercial name                          : DTS-HD Master Audio
Codec ID                                 : mp4a-A9
Duration                                 : 2 h 10 min
Bit rate mode                            : Variable
Bit rate                                 : 2 855 kb/s
Channel(s)                               : 8 channels
Channel layout                           : C L R LFE Lb Rb Lss Rss
Sampling rate                            : 48.0 kHz
Frame rate                               : 93.750 FPS (512 SPF)
Bit depth                                : 16 bits
Compression mode                         : Lossless
Stream size                              : 2.61 GiB (15%)
Title                                    : Surround / Surround
Language                                 : English
Default                                  : No
Alternate group                          : 1
Encoded date                             : UTC 2018-09-21 16:00:11
Tagged date                              : UTC 2018-09-21 16:00:11

Text #1
ID                                       : 6
Format                                   : VobSub
Codec ID                                 : mp4s-E0
Codec ID/Info                            : The same subtitle format used on DVDs
Duration                                 : 2 h 1 min
Bit rate mode                            : Variable
Bit rate                                 : 10.2 kb/s
Stream size                              : 8.87 MiB (0%)
Language                                 : Thai
Default                                  : Yes
Forced                                   : No
Alternate group                          : 3
Encoded date                             : UTC 2018-09-21 16:00:11
Tagged date                              : UTC 2018-09-21 16:00:11

Text #2
ID                                       : 7
Format                                   : VobSub
Codec ID                                 : mp4s-E0
Codec ID/Info                            : The same subtitle format used on DVDs
Duration                                 : 2 h 0 min
Bit rate mode                            : Variable
Bit rate                                 : 11.2 kb/s
Stream size                              : 9.67 MiB (0%)
Language                                 : English
Default                                  : No
Forced                                   : No
Alternate group                          : 3
Encoded date                             : UTC 2018-09-21 16:00:11
Tagged date                              : UTC 2018-09-21 16:00:11



http://www.mekafile.com/dl.php?f=Egfe6dbSNq7m
ไฟล์เกม VIP เกมไหนมีปัญหาโหลดไม่ใด้ PM ส่งข้อความถึง Admin
ไฟล์เก่าเว็บ RabbitFile สามารถโหลดใด้เพียงเปลี่ยน Url จาก http://www.rabbitfile.com/....... เป็น http://www.mekafile.com/........