ผู้เขียน หัวข้อ: Alien (1979) เอเลี่ยน [พากย์ไทย 5.1 + เสียงอังกฤษ DTS-XLL] - 4K HQ 2160P  (อ่าน 119 ครั้ง)

0 สมาชิก และ 1 บุคคลทั่วไป กำลังดูหัวข้อนี้

ออนไลน์ BLG-Game

  • Administrator
  • Hero Member
  • *********
  • กระทู้: 2216
    • ดูรายละเอียด
    • www.blggames.com


        หลังจากที่ลูกเรือของยานขนส่งอวกาศ  นอสโตรโม  เสร็จสิ้นการเดินทางจากห้วงจักรวาล พวกเขาก็ต้องตื่นขึ้นจากสภาวะหลับไหลเพื่อมารับสัญญาณฉุกเฉินที่ส่งมาจากดาวเคราะห์ดวงหนึ่งในเส้นทางผ่าน หลังจากที่ลงพื้นที่เพื่อตรวจสอบพวกเขาก็ค้นพบยานอวกาศรูปร่างแปลกประหลาดจอดอยู่ และสัญญาณที่ส่งออกมาก็มาจากยานลำนี้และลูกเรือคนหนึ่งก็เข้าไปสำรวจภายในยาน สิ่งที่พวกเขาพบเห็นก็คือไข่ประหลาดของสิ่งมีชีวิตจากต่างดาวนับพันฟองในขณะที่กำลังตรวจสอบไข่ใบหนึ่งนั้น สิ่งที่อยู่ข้างในก็ฟักตัวออกมาและจู่โจมลูกเรือคนหนึ่งเข้า หลังจากที่กลับมาที่ยานนอสโตรโมพวกเขาก็ตั้งเส้นทางกลับโลก แต่สิ่งมีชีวิตสุดอันตรายตัวนี้กลับตายลงและทุกอย่างดูเหมือนจะไม่มีพิษภัยอะไรแต่หารู้ไม่ว่ามันได้ปล่อยตัวอ่อนเข้าไปในร่างกายของเขาแล้ว และกำลังจะฟักตัวออกมาเพื่อฆ่าทุกคนบนยานลำนี้!!!





อ้างถึง
Format                                   : MPEG-4
Format profile                           : Base Media / Version 2
Codec ID                                 : mp42 (isom/iso2/avc1/mp41)
File size                                : 17.3 GiB
Duration                                 : 1 h 56 min
Overall bit rate mode                    : Variable
Overall bit rate                         : 21.2 Mb/s
Encoded date                             : UTC 2019-04-11 23:23:32
Tagged date                              : UTC 2019-04-11 23:23:32
Writing application                      : HandBrake 1.1.2 2018090500

Video
ID                                       : 1
Format                                   : AVC
Format/Info                              : Advanced Video Codec
Format profile                           : High@L4.1
Format settings                          : CABAC / 1 Ref Frames
Format settings, CABAC                   : Yes
Format settings, RefFrames               : 1 frame
Codec ID                                 : avc1
Codec ID/Info                            : Advanced Video Coding
Duration                                 : 1 h 56 min
Bit rate                                 : 16.0 Mb/s
Width                                    : 3 840 pixels
Height                                   : 1 600 pixels
Display aspect ratio                     : 2.40:1
Frame rate mode                          : Variable
Frame rate                               : 23.976 (24000/1001) FPS
Minimum frame rate                       : 23.974 FPS
Maximum frame rate                       : 23.981 FPS
Color space                              : YUV
Chroma subsampling                       : 4:2:0
Bit depth                                : 8 bits
Scan type                                : Progressive
Bits/(Pixel*Frame)                       : 0.109
Stream size                              : 12.9 GiB (74%)
Writing library                          : x264 core 155 r2901 7d0ff22
Encoding settings                        : cabac=1 / ref=1 / deblock=1:1:1 / analyse=0x3:0x113 / me=hex / subme=7 / psy=1 / psy_rd=0.40:0.00 / mixed_ref=0 / me_range=16 / chroma_me=1 / trellis=1 / 8x8dct=1 / cqm=0 / deadzone=21,11 / fast_pskip=1 / chroma_qp_offset=-2 / threads=12 / lookahead_threads=2 / sliced_threads=0 / nr=0 / decimate=1 / interlaced=0 / bluray_compat=0 / constrained_intra=0 / bframes=0 / weightp=2 / keyint=240 / keyint_min=24 / scenecut=40 / intra_refresh=0 / rc_lookahead=40 / rc=abr / mbtree=1 / bitrate=16000 / ratetol=1.0 / qcomp=0.60 / qpmin=0 / qpmax=69 / qpstep=4 / vbv_maxrate=62500 / vbv_bufsize=78125 / nal_hrd=none / filler=0 / ip_ratio=1.40 / aq=1:0.60
Encoded date                             : UTC 2019-04-11 23:23:32
Tagged date                              : UTC 2019-04-11 23:23:32
Color range                              : Limited
Color primaries                          : BT.709
Transfer characteristics                 : BT.709
Matrix coefficients                      : BT.709
Codec configuration box                  : avcC

Audio #1
ID                                       : 2
Format                                   : AAC LC
Format/Info                              : Advanced Audio Codec Low Complexity
Codec ID                                 : mp4a-40-2
Duration                                 : 1 h 56 min
Bit rate mode                            : Variable
Bit rate                                 : 448 kb/s
Channel(s)                               : 6 channels
Channel layout                           : C L R Ls Rs LFE
Sampling rate                            : 48.0 kHz
Frame rate                               : 46.875 FPS (1024 SPF)
Compression mode                         : Lossy
Stream size                              : 374 MiB (2%)
Title                                    : Surround / Surround
Language                                 : Thai
Default                                  : Yes
Alternate group                          : 1
Encoded date                             : UTC 2019-04-11 23:23:32
Tagged date                              : UTC 2019-04-11 23:23:32
Fallback From                            : 4

Audio #2
ID                                       : 3
Format                                   : AAC LC
Format/Info                              : Advanced Audio Codec Low Complexity
Codec ID                                 : mp4a-40-2
Duration                                 : 1 h 56 min
Bit rate mode                            : Variable
Bit rate                                 : 448 kb/s
Channel(s)                               : 6 channels
Channel layout                           : C L R Ls Rs LFE
Sampling rate                            : 48.0 kHz
Frame rate                               : 46.875 FPS (1024 SPF)
Compression mode                         : Lossy
Stream size                              : 374 MiB (2%)
Title                                    : Surround / Surround
Language                                 : English
Default                                  : No
Alternate group                          : 1
Encoded date                             : UTC 2019-04-11 23:23:32
Tagged date                              : UTC 2019-04-11 23:23:32
Fallback From                            : 5

Audio #3
ID                                       : 4
Format                                   : AC-3
Format/Info                              : Audio Coding 3
Commercial name                          : Dolby Digital
Codec ID                                 : ac-3
Duration                                 : 1 h 56 min
Bit rate mode                            : Constant
Bit rate                                 : 448 kb/s
Channel(s)                               : 6 channels
Channel layout                           : L R C LFE Ls Rs
Sampling rate                            : 48.0 kHz
Frame rate                               : 31.250 FPS (1536 SPF)
Bit depth                                : 16 bits
Compression mode                         : Lossy
Stream size                              : 374 MiB (2%)
Title                                    : Surround / Surround
Language                                 : Thai
Service kind                             : Complete Main
Default                                  : Inherited From: 2
Alternate group                          : 1
Encoded date                             : UTC 2019-04-11 23:23:32
Tagged date                              : UTC 2019-04-11 23:23:32
Fallback To                              : 2

Audio #4
ID                                       : 5
Format                                   : AC-3
Format/Info                              : Audio Coding 3
Commercial name                          : Dolby Digital
Codec ID                                 : ac-3
Duration                                 : 1 h 56 min
Bit rate mode                            : Constant
Bit rate                                 : 640 kb/s
Channel(s)                               : 6 channels
Channel layout                           : L R C LFE Ls Rs
Sampling rate                            : 48.0 kHz
Frame rate                               : 31.250 FPS (1536 SPF)
Bit depth                                : 16 bits
Compression mode                         : Lossy
Stream size                              : 534 MiB (3%)
Title                                    : Surround / Surround
Language                                 : English
Service kind                             : Complete Main
Default                                  : No
Alternate group                          : 1
Encoded date                             : UTC 2019-04-11 23:23:32
Tagged date                              : UTC 2019-04-11 23:23:32
Fallback To                              : 3

Audio #5
ID                                       : 6
Format                                   : DTS XLL
Format/Info                              : Digital Theater Systems
Commercial name                          : DTS-HD Master Audio
Codec ID                                 : mp4a-A9
Duration                                 : 1 h 56 min
Bit rate mode                            : Variable
Bit rate                                 : 3 427 kb/s
Channel(s)                               : 6 channels
Channel layout                           : C L R Ls Rs LFE
Sampling rate                            : 48.0 kHz
Frame rate                               : 93.750 FPS (512 SPF)
Bit depth                                : 24 bits
Compression mode                         : Lossless
Stream size                              : 2.79 GiB (16%)
Title                                    : Surround / Surround
Language                                 : English
Default                                  : No
Alternate group                          : 1
Encoded date                             : UTC 2019-04-11 23:23:32
Tagged date                              : UTC 2019-04-11 23:23:32

Text #1
ID                                       : 7
Format                                   : VobSub
Codec ID                                 : mp4s-E0
Codec ID/Info                            : The same subtitle format used on DVDs
Duration                                 : 1 h 56 min
Bit rate mode                            : Variable
Bit rate                                 : 3 648 b/s
Stream size                              : 3.04 MiB (0%)
Language                                 : Thai
Default                                  : Yes
Forced                                   : No
Alternate group                          : 3
Encoded date                             : UTC 2019-04-11 23:23:32
Tagged date                              : UTC 2019-04-11 23:23:32

Text #2
ID                                       : 8
Format                                   : VobSub
Codec ID                                 : mp4s-E0
Codec ID/Info                            : The same subtitle format used on DVDs
Duration                                 : 1 h 53 min
Bit rate mode                            : Variable
Bit rate                                 : 6 647 b/s
Stream size                              : 5.39 MiB (0%)
Language                                 : English
Default                                  : No
Forced                                   : No
Alternate group                          : 3
Encoded date                             : UTC 2019-04-11 23:23:32
Tagged date                              : UTC 2019-04-11 23:23:32



http://www.mekafile.com/dl.php?f=nIff57bSN2a0
ไฟล์เกม VIP เกมไหนมีปัญหาโหลดไม่ใด้ PM ส่งข้อความถึง Admin
ไฟล์เก่าเว็บ RabbitFile สามารถโหลดใด้เพียงเปลี่ยน Url จาก http://www.rabbitfile.com/....... เป็น http://www.mekafile.com/........