ผู้เขียน หัวข้อ: Avengers: Endgame (2019) อเวนเจอร์ส เผด็จศึก [ZOOM V2 MINI 1080p ชัดกว่าเดิม] [พากย์ไทยโรง 2.0 + เสียงอังกฤษ 2.0]  (อ่าน 566 ครั้ง)

0 สมาชิก และ 1 บุคคลทั่วไป กำลังดูหัวข้อนี้

ออนไลน์ BLG-Game

  • Administrator
  • Hero Member
  • *********
  • กระทู้: 2200
    • ดูรายละเอียด
    • www.blggames.com



บทสรุปสุดยิ่งใหญ่ของ THE INFINITY SAGA มหากาพย์การต่อสู้ที่ถูกเล่าขานมากว่า 11 ปี ผ่านภาพยนตร์กว่า 22 เรื่องของ MARVEL CINEMATIC UNIVERSE
เรื่องราวการปิดจักรวาลมาร์เวลเฟส 3 เหตุการณ์ภายหลังจากที่ธานอสดีดนิ้วล้างครึ่งจักรวาล เหล่าฮีโร่ที่เหลือรอดจะหาทางกอบกู้จักรวาลนี้คืนมาได้อย่างไร



เรื่องย่อ
Avengers: ENDGAME  เรื่องราวการปิดจักรวาลมาร์เวลเฟส 3 เหตุการณ์ภายหลังจากที่ธานอสดีดนิ้วล้างครึ่งจักรวาล เหล่าฮีโร่ที่เหลือรอดจะหาทางกอบกู้จักรวาลนี้คืนมาได้อย่างไร โดยในภาคนี้จะมีตัวเด็ดอย่างกัปตันมาร์เวลมาร่วมเสริมทัพด้วย









อ้างถึง
Format                                   : Matroska
Format version                           : Version 4
File size                                : 4.04 GiB
Duration                                 : 2 h 58 min
Overall bit rate mode                    : Constant
Overall bit rate                         : 3 235 kb/s
Movie name                               : Avengers.Endgame.2019.1080p.HDTC.v2.AC3.x264-Zagon [by Zagon]
Encoded date                             : UTC 2019-04-29 12:18:55
Writing application                      : mkvmerge v26.0.0 ('In The Game') 32-bit
Writing library                          : libebml v1.3.6 + libmatroska v1.4.9

Video
ID                                       : 1
Format                                   : AVC
Format/Info                              : Advanced Video Codec
Format profile                           : High@L4
Format settings                          : CABAC / 2 Ref Frames
Format settings, CABAC                   : Yes
Format settings, RefFrames               : 2 frames
Format settings, GOP                     : M=4, N=24
Codec ID                                 : V_MPEG4/ISO/AVC
Duration                                 : 2 h 58 min
Bit rate mode                            : Constant
Bit rate                                 : 2 657 kb/s
Width                                    : 1 920 pixels
Height                                   : 810 pixels
Display aspect ratio                     : 2.40:1
Frame rate mode                          : Constant
Frame rate                               : 24.000 FPS
Color space                              : YUV
Chroma subsampling                       : 4:2:0
Bit depth                                : 8 bits
Scan type                                : Progressive
Bits/(Pixel*Frame)                       : 0.071
Stream size                              : 3.32 GiB (82%)
Title                                    : Avengers.Endgame.2019.1080p.HDTC.v2.AC3.x264-Zagon
Language                                 : Chinese
Default                                  : Yes
Forced                                   : No

Audio #1
ID                                       : 2
Format                                   : AC-3
Format/Info                              : Audio Coding 3
Commercial name                          : Dolby Digital
Codec ID                                 : A_AC3
Duration                                 : 2 h 58 min
Bit rate mode                            : Constant
Bit rate                                 : 192 kb/s
Channel(s)                               : 2 channels
Channel layout                           : L R
Sampling rate                            : 48.0 kHz
Frame rate                               : 31.250 FPS (1536 SPF)
Bit depth                                : 16 bits
Compression mode                         : Lossy
Stream size                              : 245 MiB (6%)
Title                                    : THR-TT
Language                                 : Thai
Service kind                             : Complete Main
Default                                  : No
Forced                                   : No

Audio #2
ID                                       : 3
Format                                   : AC-3
Format/Info                              : Audio Coding 3
Commercial name                          : Dolby Digital
Codec ID                                 : A_AC3
Duration                                 : 2 h 58 min
Bit rate mode                            : Constant
Bit rate                                 : 384 kb/s
Channel(s)                               : 2 channels
Channel layout                           : L R
Sampling rate                            : 48.0 kHz
Frame rate                               : 31.250 FPS (1536 SPF)
Bit depth                                : 16 bits
Compression mode                         : Lossy
Delay relative to video                  : 24 ms
Stream size                              : 491 MiB (12%)
Title                                    : English
Language                                 : English
Service kind                             : Complete Main
Default                                  : Yes
Forced                                   : No



http://www.mekafile.com/dl.php?f=LQ829ebTt6xq
ไฟล์เกม VIP เกมไหนมีปัญหาโหลดไม่ใด้ PM ส่งข้อความถึง Admin
ไฟล์เก่าเว็บ RabbitFile สามารถโหลดใด้เพียงเปลี่ยน Url จาก http://www.rabbitfile.com/....... เป็น http://www.mekafile.com/........