ผู้เขียน หัวข้อ: The Kid Who Would Be King (2019) : หนุ่มน้อยสู่จอมราชันย์ [พากย์ไทย+อังกฤษ] 4K MINI HQ 2160P  (อ่าน 145 ครั้ง)

0 สมาชิก และ 1 บุคคลทั่วไป กำลังดูหัวข้อนี้

ออฟไลน์ BLG-Game

  • Administrator
  • Hero Member
  • *********
  • กระทู้: 2488
    • ดูรายละเอียด
    • www.blggames.com


การพบกันอย่างคาดไม่ถึงของเวทย์มนต์โบราณ กับความซ่าเกินพิกัดของก๊วนเด็กแสบ
ในมหึมาภาพยนตร์ผจญภัย..แฟนตาซีเหนือจินตนาการ!
จากทีมผู้สร้าง SHAUN of the DEAD และ BABY DRIVER


••• 4K MINI HQ 2160P •••



 
The Kid Who Would Be King_(2019)
  เรื่องราวของอเล็กซ์ (แอชบอร์น เซอร์กิส) เด็กชายที่คิดว่าตัวเองก็เป็นแค่คนไร้ตัวตนคนหนึ่ง จนกระทั่งบังเอิญไปเจอกับเอ็กซ์คาลิเบอร์ ดาบในตำนานที่ปักอยู่ในหินเข้า
คราวนี้เขาเลยต้องรวบรวมทั้งผองเพื่อนและศัตรูเพื่อสร้างกลุ่มอัศวินร่วมกับพ่อมดเมอร์ลินในตำนาน (สจ๊วต) เพื่อเอาชนะแม่มดร้าย มอร์กาน่า(เฟอร์กูสัน) ให้ได้
เมื่อมีอนาคตเป็นเดิมพัน อเล็กซ์จะต้องกลายเป็นผู้นำที่ยิ่งใหญ่ อย่างที่เขาไม่เคยคิดฝันว่าตัวเองจะเป็นได้มาก่อน!!!





อ้างถึง
Format                                   : Matroska
Format version                           : Version 4
File size                                : 3.86 GiB
Duration                                 : 2 h 0 min
Overall bit rate                         : 4 597 kb/s
Encoded date                             : UTC 2019-04-22 15:02:25
Writing application                      : mkvmerge v33.1.0 ('Primrose') 64-bit
Writing library                          : libebml v1.3.7 + libmatroska v1.5.0
Cover                                    : Yes
Attachments                              : cover

Video
ID                                       : 1
Format                                   : HEVC
Format/Info                              : High Efficiency Video Coding
Format profile                           : Main 10@L5@High
Codec ID                                 : V_MPEGH/ISO/HEVC
Duration                                 : 2 h 0 min
Bit rate                                 : 2 950 kb/s
Width                                    : 3 840 pixels
Height                                   : 1 600 pixels
Display aspect ratio                     : 2.40:1
Frame rate mode                          : Constant
Frame rate                               : 23.976 (24000/1001) FPS
Color space                              : YUV
Chroma subsampling                       : 4:2:0
Bit depth                                : 10 bits
Bits/(Pixel*Frame)                       : 0.020
Stream size                              : 2.47 GiB (64%)
Writing library                          : x265 2.9:[Windows][GCC 7.1.0][64 bit] 10bit
Encoding settings                        : cpuid=1049583 / frame-threads=5 / numa-pools=32,0 / wpp / no-pmode / no-pme / no-psnr / no-ssim / log-level=2 / input-csp=1 / input-res=3840x1600 / interlace=0 / total-frames=0 / level-idc=50 / high-tier=1 / uhd-bd=0 / ref=1 / no-allow-non-conformance / no-repeat-headers / annexb / no-aud / no-hrd / info / hash=0 / no-temporal-layers / open-gop / min-keyint=24 / keyint=240 / gop-lookahead=0 / bframes=0 / b-adapt=0 / no-b-pyramid / bframe-bias=0 / rc-lookahead=8 / lookahead-slices=0 / scenecut=100 / radl=0 / no-intra-refresh / ctu=32 / min-cu-size=16 / no-rect / no-amp / max-tu-size=32 / tu-inter-depth=3 / tu-intra-depth=3 / limit-tu=4 / rdoq-level=2 / dynamic-rd=0.00 / no-ssim-rd / signhide / no-tskip / nr-intra=0 / nr-inter=0 / no-constrained-intra / strong-intra-smoothing / max-merge=4 / limit-refs=1 / limit-modes / me=2 / subme=4 / merange=57 / temporal-mvp / weightp / weightb / no-analyze-src-pics / deblock=6:6 / sao / no-sao-non-deblock / rd=1 / no-early-skip / rskip / no-fast-intra / no-tskip-fast / no-cu-lossless / b-intra / no-splitrd-skip / rdpenalty=0 / psy-rd=0.00 / psy-rdoq=0.00 / no-rd-refine / no-lossless / cbqpoffs=-6 / crqpoffs=-2 / rc=crf / crf=27.5 / qcomp=0.60 / qpstep=4 / stats-write=0 / stats-read=0 / vbv-maxrate=100000 / vbv-bufsize=100000 / vbv-init=0.9 / crf-max=0.0 / crf-min=0.0 / ipratio=1.40 / aq-mode=3 / aq-strength=1.20 / cutree / zone-count=0 / no-strict-cbr / qg-size=32 / no-rc-grain / qpmax=69 / qpmin=0 / no-const-vbv / sar=1 / overscan=0 / videoformat=5 / range=0 / colorprim=9 / transfer=16 / colormatrix=9 / chromaloc=0 / display-window=0 / max-cll=0,0 / min-luma=0 / max-luma=1023 / log2-max-poc-lsb=8 / vui-timing-info / vui-hrd-info / slices=1 / no-opt-qp-pps / no-opt-ref-list-length-pps / no-multi-pass-opt-rps / scenecut-bias=0.01 / no-opt-cu-delta-qp / no-aq-motion / no-hdr / no-hdr-opt / no-dhdr10-opt / no-idr-recovery-sei / analysis-reuse-level=5 / scale-factor=0 / refine-intra=0 / refine-inter=0 / refine-mv=0 / no-limit-sao / ctu-info=0 / no-lowpass-dct / refine-mv-type=0 / copy-pic=1 / max-ausize-factor=1.0 / no-dynamic-refine / no-single-sei
Default                                  : Yes
Forced                                   : No
Color range                              : Limited
Color primaries                          : BT.2020
Transfer characteristics                 : PQ
Matrix coefficients                      : BT.2020 non-constant

Audio #1
ID                                       : 2
Format                                   : DTS
Format/Info                              : Digital Theater Systems
Codec ID                                 : A_DTS
Duration                                 : 2 h 0 min
Bit rate mode                            : Constant
Bit rate                                 : 755 kb/s
Channel(s)                               : 6 channels
Channel layout                           : C L R Ls Rs LFE
Sampling rate                            : 48.0 kHz
Frame rate                               : 93.750 FPS (512 SPF)
Bit depth                                : 24 bits
Compression mode                         : Lossy
Delay relative to video                  : -5 ms
Stream size                              : 648 MiB (16%)
Language                                 : English
Default                                  : No
Forced                                   : No

Audio #2
ID                                       : 3
Format                                   : AC-3
Format/Info                              : Audio Coding 3
Commercial name                          : Dolby Digital
Codec ID                                 : A_AC3
Duration                                 : 2 h 0 min
Bit rate mode                            : Constant
Bit rate                                 : 320 kb/s
Channel(s)                               : 6 channels
Channel layout                           : L R C LFE Ls Rs
Sampling rate                            : 48.0 kHz
Frame rate                               : 31.250 FPS (1536 SPF)
Bit depth                                : 16 bits
Compression mode                         : Lossy
Delay relative to video                  : -5 ms
Stream size                              : 275 MiB (7%)
Language                                 : English
Service kind                             : Complete Main
Default                                  : No
Forced                                   : No

Audio #3
ID                                       : 4
Format                                   : AC-3
Format/Info                              : Audio Coding 3
Commercial name                          : Dolby Digital
Codec ID                                 : A_AC3
Duration                                 : 2 h 0 min
Bit rate mode                            : Constant
Bit rate                                 : 448 kb/s
Channel(s)                               : 6 channels
Channel layout                           : L R C LFE Ls Rs
Sampling rate                            : 48.0 kHz
Frame rate                               : 31.250 FPS (1536 SPF)
Bit depth                                : 16 bits
Compression mode                         : Lossy
Delay relative to video                  : -5 ms
Stream size                              : 385 MiB (10%)
Language                                 : Thai
Service kind                             : Complete Main
Default                                  : Yes
Forced                                   : Yes

Text #1
ID                                       : 5
Format                                   : ASS
Codec ID                                 : S_TEXT/ASS
Codec ID/Info                            : Advanced Sub Station Alpha
Duration                                 : 1 h 59 min
Bit rate                                 : 92 b/s
Count of elements                        : 1633
Compression mode                         : Lossless
Stream size                              : 80.8 KiB (0%)
Language                                 : English
Default                                  : No
Forced                                   : No

Text #2
ID                                       : 6
Format                                   : ASS
Codec ID                                 : S_TEXT/ASS
Codec ID/Info                            : Advanced Sub Station Alpha
Duration                                 : 1 h 59 min
Bit rate                                 : 108 b/s
Count of elements                        : 1995
Compression mode                         : Lossless
Stream size                              : 94.9 KiB (0%)
Language                                 : English
Default                                  : No
Forced                                   : No

Text #3
ID                                       : 7
Format                                   : VobSub
Muxing mode                              : zlib
Codec ID                                 : S_VOBSUB
Codec ID/Info                            : Picture based subtitle format used on DVDs
Duration                                 : 1 h 53 min
Bit rate                                 : 10.3 kb/s
Count of elements                        : 2005
Stream size                              : 8.35 MiB (0%)
Language                                 : English
Default                                  : No
Forced                                   : No

Text #4
ID                                       : 8
Format                                   : UTF-8
Codec ID                                 : S_TEXT/UTF8
Codec ID/Info                            : UTF-8 Plain Text
Duration                                 : 1 h 53 min
Bit rate                                 : 65 b/s
Count of elements                        : 2005
Stream size                              : 54.5 KiB (0%)
Language                                 : English
Default                                  : No
Forced                                   : No

Text #5
ID                                       : 9
Format                                   : PGS
Muxing mode                              : zlib
Codec ID                                 : S_HDMV/PGS
Codec ID/Info                            : Picture based subtitle format used on BDs/HD-DVDs
Duration                                 : 1 h 53 min
Bit rate                                 : 43.7 kb/s
Count of elements                        : 4010
Stream size                              : 35.5 MiB (1%)
Language                                 : English
Default                                  : No
Forced                                   : No

Text #6
ID                                       : 10
Format                                   : PGS
Muxing mode                              : zlib
Codec ID                                 : S_HDMV/PGS
Codec ID/Info                            : Picture based subtitle format used on BDs/HD-DVDs
Duration                                 : 1 h 53 min
Bit rate                                 : 43.7 kb/s
Count of elements                        : 4010
Stream size                              : 35.5 MiB (1%)
Language                                 : English
Default                                  : No
Forced                                   : No

Text #7
ID                                       : 11
Format                                   : PGS
Muxing mode                              : zlib
Codec ID                                 : S_HDMV/PGS
Codec ID/Info                            : Picture based subtitle format used on BDs/HD-DVDs
Duration                                 : 1 h 59 min
Bit rate                                 : 68.9 kb/s
Count of elements                        : 4020
Stream size                              : 58.8 MiB (1%)
Language                                 : English
Default                                  : Yes
Forced                                   : No

Text #8
ID                                       : 12
Format                                   : VobSub
Muxing mode                              : zlib
Codec ID                                 : S_VOBSUB
Codec ID/Info                            : Picture based subtitle format used on DVDs
Duration                                 : 1 h 59 min
Bit rate                                 : 8 188 b/s
Count of elements                        : 1595
Stream size                              : 6.99 MiB (0%)
Language                                 : Thai
Default                                  : No
Forced                                   : No

Text #9
ID                                       : 13
Format                                   : UTF-8
Codec ID                                 : S_TEXT/UTF8
Codec ID/Info                            : UTF-8 Plain Text
Duration                                 : 1 h 59 min
Bit rate                                 : 127 b/s
Count of elements                        : 1595
Stream size                              : 111 KiB (0%)
Language                                 : Thai
Default                                  : No
Forced                                   : No

Text #10
ID                                       : 14
Format                                   : PGS
Muxing mode                              : zlib
Codec ID                                 : S_HDMV/PGS
Codec ID/Info                            : Picture based subtitle format used on BDs/HD-DVDs
Duration                                 : 1 h 59 min
Bit rate                                 : 39.2 kb/s
Count of elements                        : 3190
Stream size                              : 33.5 MiB (1%)
Language                                 : Thai
Default                                  : No
Forced                                   : No

Text #11
ID                                       : 15
Format                                   : PGS
Muxing mode                              : zlib
Codec ID                                 : S_HDMV/PGS
Codec ID/Info                            : Picture based subtitle format used on BDs/HD-DVDs
Duration                                 : 1 h 59 min
Bit rate                                 : 39.2 kb/s
Count of elements                        : 3190
Stream size                              : 33.5 MiB (1%)
Language                                 : Thai
Default                                  : No
Forced                                   : No

Menu
00:00:00.000                             : :Chapter 1
00:06:30.015                             : :Chapter 2
00:11:41.201                             : :Chapter 3
00:15:52.869                             : :Chapter 4
00:20:21.762                             : :Chapter 5
00:27:00.410                             : :Chapter 6
00:34:03.959                             : :Chapter 7
00:40:08.239                             : :Chapter 8
00:43:21.182                             : :Chapter 9
00:47:42.735                             : :Chapter 10
00:55:36.291                             : :Chapter 11
00:59:38.325                             : :Chapter 12
01:06:51.257                             : :Chapter 13
01:11:45.551                             : :Chapter 14
01:17:40.614                             : :Chapter 15
01:21:47.903                             : :Chapter 16
01:25:25.537                             : :Chapter 17
01:27:57.773                             : :Chapter 18
01:31:37.033                             : :Chapter 19
01:33:56.881                             : :Chapter 20
01:38:30.780                             : :Chapter 21
01:44:10.995                             : :Chapter 22
01:50:55.357                             : :Chapter 23
01:53:32.848                             : :Chapter 24



http://www.mekafile.com/dl.php?f=5Ba342bTxjf6

ไฟล์เกม VIP เกมไหนมีปัญหาโหลดไม่ใด้ PM ส่งข้อความถึง Admin
ไฟล์เก่าเว็บ RabbitFile สามารถโหลดใด้เพียงเปลี่ยน Url จาก http://www.rabbitfile.com/....... เป็น http://www.mekafile.com/........