ผู้เขียน หัวข้อ: The Kid Who Would Be King (2019) : หนุ่มน้อยสู่จอมราชันย์ [พากย์ไทย 5.1 + เสียงอังกฤษ TrueHD7.1.Atmos]• 4K Ultra HD 2160P .MKV Full Bitrate  (อ่าน 152 ครั้ง)

0 สมาชิก และ 1 บุคคลทั่วไป กำลังดูหัวข้อนี้

ออนไลน์ BLG-Game

  • Administrator
  • Hero Member
  • *********
  • กระทู้: 2200
    • ดูรายละเอียด
    • www.blggames.com


การพบกันอย่างคาดไม่ถึงของเวทย์มนต์โบราณ กับความซ่าเกินพิกัดของก๊วนเด็กแสบ
ในมหึมาภาพยนตร์ผจญภัย..แฟนตาซีเหนือจินตนาการ!
จากทีมผู้สร้าง SHAUN of the DEAD และ BABY DRIVER


••• 4K Ultra HD 2160P .MKV Full Bitrate •••



 
The Kid Who Would Be King_(2019)
  เรื่องราวของอเล็กซ์ (แอชบอร์น เซอร์กิส) เด็กชายที่คิดว่าตัวเองก็เป็นแค่คนไร้ตัวตนคนหนึ่ง จนกระทั่งบังเอิญไปเจอกับเอ็กซ์คาลิเบอร์ ดาบในตำนานที่ปักอยู่ในหินเข้า
คราวนี้เขาเลยต้องรวบรวมทั้งผองเพื่อนและศัตรูเพื่อสร้างกลุ่มอัศวินร่วมกับพ่อมดเมอร์ลินในตำนาน (สจ๊วต) เพื่อเอาชนะแม่มดร้าย มอร์กาน่า(เฟอร์กูสัน) ให้ได้
เมื่อมีอนาคตเป็นเดิมพัน อเล็กซ์จะต้องกลายเป็นผู้นำที่ยิ่งใหญ่ อย่างที่เขาไม่เคยคิดฝันว่าตัวเองจะเป็นได้มาก่อน!!!





อ้างถึง
Format                      : Matroska
Format version              : Version 4 / Version 2
File size                   : 49.3 GiB
Duration                    : 2 h 0 min
Overall bit rate mode       : Variable
Overall bit rate            : 58.8 Mb/s
Movie name                  : [4K Remux]-The.Kid.Who.Would.Be.King.2019-UHD.BluRay.REMUX.2160p.HEVC.TrueHD7.1.Atmos-AleXa@LaKraTos-Siambit

Video
ID                          : 1
Format                      : HEVC
Format/Info                 : High Efficiency Video Coding
Format profile              : Main 10@L5.1@High
Codec ID                    : V_MPEGH/ISO/HEVC
Duration                    : 2 h 0 min
Bit rate                    : 48.3 Mb/s
Width                       : 3 840 pixels
Height                      : 2 160 pixels
Display aspect ratio        : 16:9
Frame rate mode             : Constant
Frame rate                  : 23.976 (24000/1001) FPS
Color space                 : YUV
Chroma subsampling          : 4:2:0 (Type 2)
Bit depth                   : 10 bits
Bits/(Pixel*Frame)          : 0.243
Stream size                 : 40.5 GiB (82%)
Title                       : [4K Remux]-The.Kid.Who.Would.Be.King.2019-UHD.BluRay.REMUX.2160p.HEVC.TrueHD7.1.Atmos-AleXa@LaKraTos
Language                    : English
Default                     : Yes
Forced                      : No
Color range                 : Limited
Color primaries             : BT.2020
Transfer characteristics    : SMPTE ST 2084
Matrix coefficients         : BT.2020 non-constant
Mastering display color pri : R: x=0.680000 y=0.320000, G: x=0.265000 y=0.690000, B: x=0.150000 y=0.060000, White point: x=0.312700 y=0.329000
Mastering display luminance : min: 0.0050 cd/m2, max: 1000.0000 cd/m2

Audio 1
ID                          : 2
Format                      : AC-3
Format/Info                 : Audio Coding 3
Format settings, Endianness : Big
Codec ID                    : A_AC3
Duration                    : 2 h 0 min
Bit rate mode               : Constant
Bit rate                    : 448 kb/s
Channel(s)                  : 6 channels
Channel positions           : Front: L C R, Side: L R, LFE
Sampling rate               : 48.0 kHz
Frame rate                  : 31.250 FPS (1536 spf)
Bit depth                   : 16 bits
Compression mode            : Lossy
Delay relative to video     : -27 ms
Stream size                 : 385 MiB (1%)
Title                       : Thai BluRay Master
Language                    : Thai
Service kind                : Complete Main
Default                     : Yes
Forced                      : Yes

Audio 2
ID                          : 3
Format                      : TrueHD
Format profile              : TrueHD+Atmos / TrueHD
Codec ID                    : A_TRUEHD
Duration                    : 2 h 0 min
Bit rate mode               : Variable
Bit rate                    : 4 449 kb/s
Maximum bit rate            : 8 607 kb/s
Channel(s)                  : Object Based / 8 channels
Channel positions           : Object Based / Front: L C R, Side: L R, Back: L R, LFE
Sampling rate               :  / 48.0 kHz
Frame rate                  : 1 200.000 FPS (40 spf)
Compression mode            : Lossless
Stream size                 : 3.73 GiB (8%)
Title                       : TrueHD7.1.Atmos
Language                    : English
Default                     : No
Forced                      : No

Audio 3
ID                          : 4
Format                      : DTS
Format/Info                 : Digital Theater Systems
Format profile              : MA / ES Matrix / Core
Mode                        : 16
Format settings, Endianness : Big
Codec ID                    : A_DTS
Duration                    : 2 h 0 min
Bit rate mode               : Variable / Constant / Constant
Bit rate                    : 4 806 kb/s / 1 509 kb/s / 1 509 kb/s
Channel(s)                  : 8 channels / 7 channels / 6 channels
Channel positions           : Front: L C R, Side: L R, Back: L R, LFE / Front: L C R, Side: L R, Back: C, LFE / Front: L C R, Side: L R, LFE
Sampling rate               : 48.0 kHz
Frame rate                  : 93.750 FPS (512 spf)
Bit depth                   : 24 bits
Compression mode            : Lossless / Lossy / Lossy
Delay relative to video     : -27 ms
Stream size                 : 4.03 GiB (8%)
Title                       : English DTS-HD MA 7.1
Language                    : English
Default                     : No
Forced                      : No

Audio 4
ID                          : 5
Format                      : AC-3
Format/Info                 : Audio Coding 3
Format settings, Endianness : Big
Codec ID                    : A_AC3
Duration                    : 2 h 0 min
Bit rate mode               : Constant
Bit rate                    : 640 kb/s
Channel(s)                  : 6 channels
Channel positions           : Front: L C R, Side: L R, LFE
Sampling rate               : 48.0 kHz
Frame rate                  : 31.250 FPS (1536 spf)
Bit depth                   : 16 bits
Compression mode            : Lossy
Stream size                 : 550 MiB (1%)
Language                    : English
Service kind                : Complete Main
Default                     : No
Forced                      : No

Text 1
ID                          : 6
Format                      : VobSub
Muxing mode                 : zlib
Codec ID                    : S_VOBSUB
Codec ID/Info               : Picture based subtitle format used on DVDs
Duration                    : 19 s 975 ms
Bit rate                    : 6 320 b/s
Count of elements           : 3
Stream size                 : 15.4 KiB (0%)
Language                    : Thai
Default                     : Yes
Forced                      : Yes

Text 2
ID                          : 7
Format                      : VobSub
Muxing mode                 : zlib
Codec ID                    : S_VOBSUB
Codec ID/Info               : Picture based subtitle format used on DVDs
Duration                    : 1 h 59 min
Bit rate                    : 1 615 b/s
Count of elements           : 1594
Stream size                 : 1.38 MiB (0%)
Title                       : Thai 480p
Language                    : Thai
Default                     : No
Forced                      : No

Text 3
ID                          : 8
Format                      : VobSub
Muxing mode                 : zlib
Codec ID                    : S_VOBSUB
Codec ID/Info               : Picture based subtitle format used on DVDs
Duration                    : 1 h 59 min
Bit rate                    : 2 867 b/s
Count of elements           : 1594
Stream size                 : 2.45 MiB (0%)
Title                       : Thai 720p
Language                    : Thai
Default                     : No
Forced                      : No

Text 4
ID                          : 9
Format                      : VobSub
Muxing mode                 : zlib
Codec ID                    : S_VOBSUB
Codec ID/Info               : Picture based subtitle format used on DVDs
Duration                    : 1 h 59 min
Bit rate                    : 4 476 b/s
Count of elements           : 1594
Stream size                 : 3.82 MiB (0%)
Title                       : Thai 1080p
Language                    : Thai
Default                     : No
Forced                      : No

Text 5
ID                          : 10
Format                      : VobSub
Muxing mode                 : zlib
Codec ID                    : S_VOBSUB
Codec ID/Info               : Picture based subtitle format used on DVDs
Duration                    : 1 h 59 min
Bit rate                    : 4 441 b/s
Count of elements           : 1594
Stream size                 : 3.79 MiB (0%)
Title                       : Thai 1080p Yellow
Language                    : Thai
Default                     : No
Forced                      : No

Text 6
ID                          : 11
Format                      : VobSub
Muxing mode                 : zlib
Codec ID                    : S_VOBSUB
Codec ID/Info               : Picture based subtitle format used on DVDs
Duration                    : 1 h 59 min
Bit rate                    : 4 476 b/s
Count of elements           : 1594
Stream size                 : 3.82 MiB (0%)
Title                       : Thai 1080p Out
Language                    : Thai
Default                     : No
Forced                      : No

Text 7
ID                          : 12
Format                      : VobSub
Muxing mode                 : zlib
Codec ID                    : S_VOBSUB
Codec ID/Info               : Picture based subtitle format used on DVDs
Duration                    : 1 h 59 min
Bit rate                    : 6 171 b/s
Count of elements           : 1594
Stream size                 : 5.27 MiB (0%)
Title                       : Thai 1080p BIG
Language                    : Thai
Default                     : No
Forced                      : No

Text 8
ID                          : 13
Format                      : PGS
Muxing mode                 : zlib
Codec ID                    : S_HDMV/PGS
Codec ID/Info               : Picture based subtitle format used on BDs/HD-DVDs
Duration                    : 1 h 59 min
Bit rate                    : 22.9 kb/s
Count of elements           : 3190
Stream size                 : 19.6 MiB (0%)
Title                       : Thai PGS BluRay Master
Language                    : Thai
Default                     : No
Forced                      : No

Text 9
ID                          : 14
Format                      : PGS
Muxing mode                 : zlib
Codec ID                    : S_HDMV/PGS
Codec ID/Info               : Picture based subtitle format used on BDs/HD-DVDs
Duration                    : 1 h 59 min
Bit rate                    : 22.9 kb/s
Count of elements           : 3188
Stream size                 : 19.6 MiB (0%)
Title                       : Thai PGS Out
Language                    : Thai
Default                     : No
Forced                      : No

Text 10
ID                          : 15
Format                      : PGS
Muxing mode                 : zlib
Codec ID                    : S_HDMV/PGS
Codec ID/Info               : Picture based subtitle format used on BDs/HD-DVDs
Duration                    : 1 h 59 min
Bit rate                    : 32.5 kb/s
Count of elements           : 4020
Stream size                 : 27.8 MiB (0%)
Title                       : English
Language                    : English
Default                     : No
Forced                      : No

Menu
00:00:00.000                : en:00:00:00.000
00:06:30.015                : en:00:06:30.015
00:11:41.200                : en:00:11:41.200
00:15:52.869                : en:00:15:52.869
00:20:21.762                : en:00:20:21.762
00:27:00.410                : en:00:27:00.410
00:34:03.959                : en:00:34:03.959
00:40:08.239                : en:00:40:08.239
00:43:21.182                : en:00:43:21.182
00:47:42.735                : en:00:47:42.735
00:55:36.291                : en:00:55:36.291
00:59:38.325                : en:00:59:38.325
01:06:51.216                : en:01:06:51.216
01:11:45.551                : en:01:11:45.551
01:17:40.614                : en:01:17:40.614
01:21:47.903                : en:01:21:47.903
01:25:25.537                : en:01:25:25.537
01:27:57.772                : en:01:27:57.772
01:31:37.033                : en:01:31:37.033
01:33:56.881                : en:01:33:56.881
01:38:30.780                : en:01:38:30.780
01:44:10.995                : en:01:44:10.995
01:50:55.357                : en:01:50:55.357
01:53:32.848                : en:01:53:32.848


http://www.mekafile.com/dl.php?f=lnbe09bTxlVR
ไฟล์เกม VIP เกมไหนมีปัญหาโหลดไม่ใด้ PM ส่งข้อความถึง Admin
ไฟล์เก่าเว็บ RabbitFile สามารถโหลดใด้เพียงเปลี่ยน Url จาก http://www.rabbitfile.com/....... เป็น http://www.mekafile.com/........