ผู้เขียน หัวข้อ: Goosebumps 2: Haunted Halloween (2018) : คืนอัศจรรย์ขนหัวลุก 2: หุ่นฝังแค้น [พากย์ไทย 5.1 + เสียงอังกฤษ TrueHD 7.1.Atmos] 4k Remux Full Bitrate  (อ่าน 143 ครั้ง)

0 สมาชิก และ 1 บุคคลทั่วไป กำลังดูหัวข้อนี้

ออฟไลน์ BLG-Game

  • Administrator
  • Hero Member
  • *********
  • กระทู้: 2111
    • ดูรายละเอียด
    • www.blggames.com


ตลกผจญภัยที่สร้างจากหนังสือขายดีของ อาร์.แอล. สไตน์ ที่มียอดจำหน่ายไปกว่า 400 ล้านเล่ม!

••• 4k Remux Full Bitrate •••
เสียงไทย MASTER From DVD + ซับไทย MASTER From Blu-Ray



 
Goosebumps 2: Haunted Halloween (2018)
  ฮัลโลวีนจะกลับมาคืนชีพอีกครั้ง นำโดยเจ้าหุ่นเชิดตัวแสบ  สแล็ปปี้ เดอะ ดัมมี พร้อมด้วยเหล่าสัตว์ประหลาดต่าง ๆ ที่หลุดออกมาจากหนังสือ
ในภาพยนตร์ตลกผจญภัยที่สร้างจากหนังสือขายดีของ อาร์.แอล. สไตน์ ที่มียอดจำหน่ายไปกว่า 400 ล้านเล่ม!!!





อ้างถึง
Format                      : Matroska
Format version              : Version 4 / Version 2
File size                   : 44.6 GiB
Duration                    : 1 h 29 min
Overall bit rate mode       : Variable
Overall bit rate            : 71.0 Mb/s
Movie name                  : [4K Remux]-Goosebumps.2.Haunted.Halloween.2018-UHD.BluRay.REMUX.2160p.HDR.HEVC.Atmos-AleXa@LaKraTos

Video
ID                          : 1
Format                      : HEVC
Format/Info                 : High Efficiency Video Coding
Format profile              : Main 10@L5.1@High
Codec ID                    : V_MPEGH/ISO/HEVC
Duration                    : 1 h 29 min
Bit rate                    : 64.2 Mb/s
Width                       : 3 840 pixels
Height                      : 2 160 pixels
Display aspect ratio        : 16:9
Frame rate mode             : Constant
Frame rate                  : 23.976 (24000/1001) FPS
Color space                 : YUV
Chroma subsampling          : 4:2:0 (Type 2)
Bit depth                   : 10 bits
Bits/(Pixel*Frame)          : 0.323
Stream size                 : 40.3 GiB (90%)
Title                       : [4K Remux]-Goosebumps.2.Haunted.Halloween.2018-UHD.BluRay.REMUX.2160p.HDR.HEVC.Atmos-AleXa@LaKraTos
Language                    : English
Default                     : Yes
Forced                      : No
Color range                 : Limited
Color primaries             : BT.2020
Transfer characteristics    : SMPTE ST 2084
Matrix coefficients         : BT.2020 non-constant
Mastering display color pri : R: x=0.680000 y=0.320000, G: x=0.265000 y=0.690000, B: x=0.150000 y=0.060000, White point: x=0.312700 y=0.329000
Mastering display luminance : min: 0.0050 cd/m2, max: 4000.0000 cd/m2
Maximum Content Light Level : 981 cd/m2
Maximum Frame-Average Light : 979 cd/m2

Audio 1
ID                          : 2
Format                      : AC-3
Format/Info                 : Audio Coding 3
Format settings, Endianness : Big
Codec ID                    : A_AC3
Duration                    : 1 h 29 min
Bit rate mode               : Constant
Bit rate                    : 384 kb/s
Channel(s)                  : 6 channels
Channel positions           : Front: L C R, Side: L R, LFE
Sampling rate               : 48.0 kHz
Frame rate                  : 31.250 FPS (1536 spf)
Bit depth                   : 16 bits
Compression mode            : Lossy
Stream size                 : 247 MiB (1%)
Title                       : Thai DVD Master
Language                    : Thai
Service kind                : Complete Main
Default                     : Yes
Forced                      : Yes

Audio 2
ID                          : 3
Format                      : DTS
Format/Info                 : Digital Theater Systems
Format profile              : MA / Core
Mode                        : 16
Format settings, Endianness : Big
Codec ID                    : A_DTS
Duration                    : 1 h 29 min
Bit rate mode               : Variable / Constant
Bit rate                    : 1 971 kb/s / 1 509 kb/s
Channel(s)                  : 6 channels
Channel positions           : Front: L C R, Side: L R, LFE
Sampling rate               : 48.0 kHz
Frame rate                  : 93.750 FPS (512 spf)
Bit depth                   : 16 bits
Compression mode            : Lossless / Lossy
Stream size                 : 1.24 GiB (3%)
Title                       : English DTS-HD MA 5.1
Language                    : English
Default                     : No
Forced                      : No

Audio 3
ID                          : 4
Format                      : TrueHD
Format profile              : TrueHD+Atmos / TrueHD
Codec ID                    : A_TRUEHD
Duration                    : 1 h 29 min
Bit rate mode               : Variable
Bit rate                    : 4 317 kb/s
Maximum bit rate            : 7 593 kb/s
Channel(s)                  : Object Based / 8 channels
Channel positions           : Object Based / Front: L C R, Side: L R, Back: L R, LFE
Sampling rate               :  / 48.0 kHz
Frame rate                  : 1 200.000 FPS (40 spf)
Compression mode            : Lossless
Stream size                 : 2.71 GiB (6%)
Title                       : Dolby TrueHD/Atmos Audio / 7.1
Language                    : English
Default                     : No
Forced                      : No

Text 1
ID                          : 5
Format                      : VobSub
Muxing mode                 : zlib
Codec ID                    : S_VOBSUB
Codec ID/Info               : Picture based subtitle format used on DVDs
Duration                    : 19 s 975 ms
Bit rate                    : 6 320 b/s
Count of elements           : 3
Stream size                 : 15.4 KiB (0%)
Language                    : Thai
Default                     : Yes
Forced                      : Yes

Text 2
ID                          : 6
Format                      : VobSub
Muxing mode                 : zlib
Codec ID                    : S_VOBSUB
Codec ID/Info               : Picture based subtitle format used on DVDs
Duration                    : 1 h 28 min
Bit rate                    : 5 484 b/s
Count of elements           : 1133
Stream size                 : 3.46 MiB (0%)
Title                       : Thai 480p
Language                    : Thai
Default                     : No
Forced                      : No

Text 3
ID                          : 7
Format                      : VobSub
Muxing mode                 : zlib
Codec ID                    : S_VOBSUB
Codec ID/Info               : Picture based subtitle format used on DVDs
Duration                    : 1 h 28 min
Bit rate                    : 3 465 b/s
Count of elements           : 1133
Stream size                 : 2.19 MiB (0%)
Title                       : Thai 720p
Language                    : Thai
Default                     : No
Forced                      : No

Text 4
ID                          : 8
Format                      : VobSub
Muxing mode                 : zlib
Codec ID                    : S_VOBSUB
Codec ID/Info               : Picture based subtitle format used on DVDs
Duration                    : 1 h 28 min
Bit rate                    : 5 483 b/s
Count of elements           : 1133
Stream size                 : 3.46 MiB (0%)
Title                       : Thai 1080p
Language                    : Thai
Default                     : No
Forced                      : No

Text 5
ID                          : 9
Format                      : VobSub
Muxing mode                 : zlib
Codec ID                    : S_VOBSUB
Codec ID/Info               : Picture based subtitle format used on DVDs
Duration                    : 1 h 28 min
Bit rate                    : 5 477 b/s
Count of elements           : 1133
Stream size                 : 3.46 MiB (0%)
Title                       : Thai 1080p Yellow
Language                    : Thai
Default                     : No
Forced                      : No

Text 6
ID                          : 10
Format                      : VobSub
Muxing mode                 : zlib
Codec ID                    : S_VOBSUB
Codec ID/Info               : Picture based subtitle format used on DVDs
Duration                    : 1 h 28 min
Bit rate                    : 5 483 b/s
Count of elements           : 1133
Stream size                 : 3.46 MiB (0%)
Title                       : Thai 1080p Out
Language                    : Thai
Default                     : No
Forced                      : No

Text 7
ID                          : 11
Format                      : VobSub
Muxing mode                 : zlib
Codec ID                    : S_VOBSUB
Codec ID/Info               : Picture based subtitle format used on DVDs
Duration                    : 1 h 28 min
Bit rate                    : 7 296 b/s
Count of elements           : 1133
Stream size                 : 4.60 MiB (0%)
Title                       : Thai 1080p BIG
Language                    : Thai
Default                     : No
Forced                      : No

Text 8
ID                          : 12
Format                      : PGS
Muxing mode                 : zlib
Codec ID                    : S_HDMV/PGS
Codec ID/Info               : Picture based subtitle format used on BDs/HD-DVDs
Duration                    : 1 h 28 min
Bit rate                    : 17.5 kb/s
Count of elements           : 2271
Stream size                 : 11.0 MiB (0%)
Title                       : Thai PGS BluRay Master
Language                    : Thai
Default                     : No
Forced                      : No

Text 9
ID                          : 13
Format                      : PGS
Muxing mode                 : zlib
Codec ID                    : S_HDMV/PGS
Codec ID/Info               : Picture based subtitle format used on BDs/HD-DVDs
Duration                    : 1 h 28 min
Bit rate                    : 17.4 kb/s
Count of elements           : 2266
Stream size                 : 11.0 MiB (0%)
Title                       : Thai PGS Out
Language                    : Thai
Default                     : No
Forced                      : No

Text 10
ID                          : 14
Format                      : PGS
Muxing mode                 : zlib
Codec ID                    : S_HDMV/PGS
Codec ID/Info               : Picture based subtitle format used on BDs/HD-DVDs
Duration                    : 1 h 27 min
Bit rate                    : 17.8 kb/s
Count of elements           : 2179
Stream size                 : 11.2 MiB (0%)
Title                       : English
Language                    : English
Default                     : No
Forced                      : No

Menu
00:00:00.000                : en:Chapter 1
00:04:33.440                : en:Chapter 2
00:11:16.175                : en:Chapter 3
00:18:43.914                : en:Chapter 4
00:21:41.634                : en:Chapter 5
00:27:23.350                : en:Chapter 6
00:32:37.122                : en:Chapter 7
00:37:48.433                : en:Chapter 8
00:45:14.921                : en:Chapter 9
00:50:11.717                : en:Chapter 10
00:56:17.708                : en:Chapter 11
01:00:35.757                : en:Chapter 12
01:05:28.133                : en:Chapter 13
01:09:25.119                : en:Chapter 14
01:14:37.932                : en:Chapter 15
01:20:29.324                : en:Chapter 16



http://www.mekafile.com/dl.php?f=e76960bTyWm3
ไฟล์เกม VIP เกมไหนมีปัญหาโหลดไม่ใด้ PM ส่งข้อความถึง Admin
ไฟล์เก่าเว็บ RabbitFile สามารถโหลดใด้เพียงเปลี่ยน Url จาก http://www.rabbitfile.com/....... เป็น http://www.mekafile.com/........