ผู้เขียน หัวข้อ: Shazam! (2019) : ชาแซม! [ภาพชัดฝังซับเกาหลี+เสียงไทยโรง End Credit ครบ!] 1080p.KORSUB.WEBRip.x264  (อ่าน 377 ครั้ง)

0 สมาชิก และ 1 บุคคลทั่วไป กำลังดูหัวข้อนี้

ออฟไลน์ BLG-Game

  • Administrator
  • Hero Member
  • *********
  • กระทู้: 2025
    • ดูรายละเอียด
    • www.blggames.com


Shazam!
ประเภท : ภาพยนตร์
แนว : Action, Fantasy, Sci-Fi
ผู้กำกับ : เดวิด เอฟ แซนด์เบิร์ก
นักแสดง : อาเชอร์ แอนเจิ้ล, ซาคารี เลวี, มาร์ค สตรอง, แจ็ค ดีแลน เกรเซอร์

เรื่องย่อ
เราทุกคนล้วนมีซูเปอร์ฮีโร่อยู่ในตัวเรา แค่ต้องอาศัยเวทมนตร์เพื่อดึงมันออกมาสักหน่อย แต่สำหรับ บิลลี่ แบทสัน (แอชเชอร์ แองเจล) แค่ตะโกนออกมาคำเดียวว่า ชาแซม! จากเด็กในบ้านอุปถัมภ์วัย 14 ปี ก็สามารถกลายเป็นซูเปอร์ฮีโร่ชาแซม (แซ็คคารี่ ลีวาย) พ่อมดผู้อ่อนโยนในอดีตได้ แต่เขายังคงมีหัวใจที่เป็นเด็กแม้จะอยู่ในร่างของขี้เมาผู้น่าเกรงขาม ชาแซมในร่างผู้ใหญ่ทำให้เขาได้ใช้ชีวิตแบบเด็กวัยรุ่นที่มีพลังวิเศษ คือ สนุกสนานไปกับมัน! เขาบินได้มั้ย? มองเห็นภาพแบบเอ็กซ์เรย์ได้หรือเปล่า? ยิงสายฟ้าออกมาจากมือได้มั้ย? จะผ่านบททดสอบทางสังคมของเขาได้หรือเปล่า? ชาแซมต้องมีการทดสอบขีดจำกัดความสามารถหลายอย่างด้วยความสนุกแบบเด็ก ๆ แต่เขาต้องคุมพลังพวกนี้ให้ได้โดยเร็ว เพื่อต่อสู้กับพลังความชั่วร้ายของ ดร.แธดดีอุส ไซวาน่า (มาร์ค สตรอง)








อ้างถึง
Format                                   : Matroska
Format version                           : Version 4
File size                                : 4.02 GiB
Duration                                 : 2 h 10 min
Overall bit rate                         : 4 417 kb/s
Movie name                               : Shazam.2019.1080p.KORSUB.HDRip.x264.AAC2.0-STUTTERSHIT
Encoded date                             : UTC 2019-05-11 13:48:37
Writing application                      : mkvmerge v25.0.0 ('Prog Noir') 64-bit
Writing library                          : libebml v1.3.6 + libmatroska v1.4.9
Cover                                    : Yes
Attachments                              : cover_land.jpg / small_cover.jpg / small_cover_land.jpg / cover.jpg

Video
ID                                       : 1
Format                                   : AVC
Format/Info                              : Advanced Video Codec
Format profile                           : High@L4.1
Format settings                          : CABAC / 4 Ref Frames
Format settings, CABAC                   : Yes
Format settings, RefFrames               : 4 frames
Codec ID                                 : V_MPEG4/ISO/AVC
Duration                                 : 2 h 10 min
Bit rate                                 : 3 990 kb/s
Width                                    : 1 920 pixels
Height                                   : 800 pixels
Display aspect ratio                     : 2.40:1
Frame rate mode                          : Constant
Frame rate                               : 30.000 FPS
Color space                              : YUV
Chroma subsampling                       : 4:2:0
Bit depth                                : 8 bits
Scan type                                : Progressive
Bits/(Pixel*Frame)                       : 0.087
Stream size                              : 3.61 GiB (90%)
Title                                    : Shazam.2019.1080p.KORSUB.HDRip.x264.AC3.THR2.0_HeRMineZ
Writing library                          : x264 core 142 r2479 dd79a61
Encoding settings                        : cabac=1 / ref=1 / deblock=1:0:0 / analyse=0x3:0x3 / me=dia / subme=1 / psy=1 / psy_rd=1.00:0.00 / mixed_ref=0 / me_range=16 / chroma_me=1 / trellis=0 / 8x8dct=1 / cqm=0 / deadzone=21,11 / fast_pskip=1 / chroma_qp_offset=0 / threads=24 / lookahead_threads=4 / sliced_threads=0 / nr=0 / decimate=1 / interlaced=0 / bluray_compat=0 / constrained_intra=0 / bframes=3 / b_pyramid=2 / b_adapt=1 / b_bias=0 / direct=1 / weightb=1 / open_gop=0 / weightp=1 / keyint=300 / keyint_min=30 / scenecut=40 / intra_refresh=0 / rc_lookahead=0 / rc=abr / mbtree=0 / bitrate=3990 / ratetol=1.0 / qcomp=0.60 / qpmin=0 / qpmax=69 / qpstep=4 / vbv_maxrate=62500 / vbv_bufsize=78125 / nal_hrd=none / filler=0 / ip_ratio=1.40 / pb_ratio=1.30 / aq=1:1.00
Default                                  : Yes
Forced                                   : No
Color range                              : Limited
Color primaries                          : BT.709
Transfer characteristics                 : BT.709
Matrix coefficients                      : BT.709

Audio #1
ID                                       : 2
Format                                   : AC-3
Format/Info                              : Audio Coding 3
Commercial name                          : Dolby Digital
Codec ID                                 : A_AC3
Duration                                 : 2 h 10 min
Bit rate mode                            : Constant
Bit rate                                 : 192 kb/s
Channel(s)                               : 2 channels
Channel layout                           : L R
Sampling rate                            : 48.0 kHz
Frame rate                               : 31.250 FPS (1536 SPF)
Bit depth                                : 16 bits
Compression mode                         : Lossy
Delay relative to video                  : -108 ms
Stream size                              : 179 MiB (4%)
Title                                    : Thai Rong 2.0 @192 Kbps Modified By HeRMineZ
Language                                 : Thai
Service kind                             : Complete Main
Default                                  : Yes
Forced                                   : No

Audio #2
ID                                       : 3
Format                                   : AAC LC
Format/Info                              : Advanced Audio Codec Low Complexity
Codec ID                                 : A_AAC-2
Duration                                 : 2 h 10 min
Bit rate                                 : 256 kb/s
Channel(s)                               : 2 channels
Channel layout                           : L R
Sampling rate                            : 48.0 kHz
Frame rate                               : 46.875 FPS (1024 SPF)
Compression mode                         : Lossy
Delay relative to video                  : -108 ms
Stream size                              : 239 MiB (6%)
Title                                    : English 2.0 @256 Kbps
Language                                 : English
Default                                  : No
Forced                                   : No




http://www.mekafile.com/dl.php?f=AXdc68bU1nM9


ภาพชัด HQ HDTV.H.264.1080p. 6.14GB
http://www.mekafile.com/dl.php?f=Ojc8dabU1nGC



อ้างถึง
Format                                   : Matroska
Format version                           : Version 4
File size                                : 6.15 GiB
Duration                                 : 2 h 10 min
Overall bit rate mode                    : Variable
Overall bit rate                         : 6 755 kb/s
Encoded date                             : UTC 2019-05-12 07:35:50
Writing application                      : mkvmerge v33.1.0 ('Primrose') 64-bit
Writing library                          : libebml v1.3.7 + libmatroska v1.5.0 / Lavf58.12.100

Video
ID                                       : 1
Format                                   : AVC
Format/Info                              : Advanced Video Codec
Format profile                           : Main@L4
Format settings                          : CABAC / 1 Ref Frames
Format settings, CABAC                   : Yes
Format settings, RefFrames               : 1 frame
Format settings, GOP                     : M=1, N=25
Codec ID                                 : V_MPEG4/ISO/AVC
Duration                                 : 2 h 10 min
Bit rate mode                            : Variable
Bit rate                                 : 6 317 kb/s
Maximum bit rate                         : 2 000 kb/s
Width                                    : 1 920 pixels
Height                                   : 1 080 pixels
Display aspect ratio                     : 16:9
Frame rate mode                          : Constant
Frame rate                               : 23.976 (24000/1001) FPS
Color space                              : YUV
Chroma subsampling                       : 4:2:0
Bit depth                                : 8 bits
Scan type                                : Progressive
Bits/(Pixel*Frame)                       : 0.127
Stream size                              : 5.75 GiB (94%)
Default                                  : Yes
Forced                                   : No

Audio #1
ID                                       : 2
Format                                   : AAC LC
Format/Info                              : Advanced Audio Codec Low Complexity
Codec ID                                 : A_AAC-2
Duration                                 : 2 h 10 min
Bit rate                                 : 308 kb/s
Channel(s)                               : 6 channels
Channel layout                           : C L R Ls Rs LFE
Sampling rate                            : 48.0 kHz
Frame rate                               : 46.875 FPS (1024 SPF)
Compression mode                         : Lossy
Stream size                              : 287 MiB (5%)
Default                                  : Yes
Forced                                   : No

Audio #2
ID                                       : 3
Format                                   : AC-3
Format/Info                              : Audio Coding 3
Commercial name                          : Dolby Digital
Codec ID                                 : A_AC3
Duration                                 : 2 h 10 min
Bit rate mode                            : Constant
Bit rate                                 : 128 kb/s
Channel(s)                               : 2 channels
Channel layout                           : L R
Sampling rate                            : 48.0 kHz
Frame rate                               : 31.250 FPS (1536 SPF)
Bit depth                                : 16 bits
Compression mode                         : Lossy
Stream size                              : 119 MiB (2%)
Language                                 : English
Service kind                             : Complete Main
Default                                  : No
Forced                                   : No

ไฟล์เกม VIP เกมไหนมีปัญหาโหลดไม่ใด้ PM ส่งข้อความถึง Admin
ไฟล์เก่าเว็บ RabbitFile สามารถโหลดใด้เพียงเปลี่ยน Url จาก http://www.rabbitfile.com/....... เป็น http://www.mekafile.com/........