ผู้เขียน หัวข้อ: John Wick: Chapter 3 Parabellum (2019) จอห์น วิค แรงกว่านรก 3 [ซูมชัดแจ๋ว]-Encode.H.264.1080p. [หนังซูม]-[พากย์ไทยโรง]  (อ่าน 793 ครั้ง)

0 สมาชิก และ 1 บุคคลทั่วไป กำลังดูหัวข้อนี้

ออฟไลน์ BLG-Game

  • Administrator
  • Hero Member
  • *********
  • กระทู้: 2111
    • ดูรายละเอียด
    • www.blggames.com


   เรื่องย่อ John Wick 3 Parabellum ในภาคใหม่นี้ John Wick ต้องถูกคนทั้งโลกตามล่าด้วยค่าหัว $14 ล้านเหรียญ เนื่องจากเขาได้แหกกฎกลาง โดยการฆ่าคนในพื้นที่โรงแรมของ Continental และยิ่งคนที่เขาฆ่าคือสมาชิกระดับสูง เขาจึงต้องสู้และฆ่ากับศัตรูรอบด้านเพื่อหาทางหลบหนีออกจากเมืองนิวยอร์ก









อ้างถึง
Format                                   : Matroska
Format version                           : Version 4
File size                                : 2.69 GiB
Duration                                 : 2 h 2 min
Overall bit rate                         : 3 154 kb/s
Encoded date                             : UTC 2019-05-16 07:56:06
Writing application                      : mkvmerge v33.1.0 ('Primrose') 64-bit
Writing library                          : libebml v1.3.7 + libmatroska v1.5.0

Video
ID                                       : 1
Format                                   : AVC
Format/Info                              : Advanced Video Codec
Format profile                           : High@L4
Format settings                          : CABAC / 2 Ref Frames
Format settings, CABAC                   : Yes
Format settings, RefFrames               : 2 frames
Format settings, GOP                     : M=3, N=30
Codec ID                                 : V_MPEG4/ISO/AVC
Duration                                 : 2 h 2 min
Bit rate                                 : 3 023 kb/s
Width                                    : 1 920 pixels
Height                                   : 804 pixels
Display aspect ratio                     : 2.40:1
Frame rate mode                          : Constant
Frame rate                               : 30.000 FPS
Color space                              : YUV
Chroma subsampling                       : 4:2:0
Bit depth                                : 8 bits
Scan type                                : Progressive
Bits/(Pixel*Frame)                       : 0.065
Stream size                              : 2.58 GiB (96%)
Default                                  : Yes
Forced                                   : No

Audio
ID                                       : 2
Format                                   : MPEG Audio
Format version                           : Version 1
Format profile                           : Layer 3
Codec ID                                 : A_MPEG/L3
Codec ID/Hint                            : MP3
Duration                                 : 2 h 2 min
Bit rate mode                            : Constant
Bit rate                                 : 128 kb/s
Channel(s)                               : 2 channels
Sampling rate                            : 44.1 kHz
Frame rate                               : 38.281 FPS (1152 SPF)
Compression mode                         : Lossy
Stream size                              : 112 MiB (4%)
Default                                  : Yes
Forced                                   : No




http://www.mekafile.com/dl.php?f=sM9563bU5WDw
ไฟล์เกม VIP เกมไหนมีปัญหาโหลดไม่ใด้ PM ส่งข้อความถึง Admin
ไฟล์เก่าเว็บ RabbitFile สามารถโหลดใด้เพียงเปลี่ยน Url จาก http://www.rabbitfile.com/....... เป็น http://www.mekafile.com/........