ผู้เขียน หัวข้อ: Captain Marvel (2019) : กัปตันมาร์เวล •[พากย์ไทย มาสเตอร์ + เสียงอังกฤษ 5.1] • ชัด HQ 1080p BluRay  (อ่าน 214 ครั้ง)

0 สมาชิก และ 1 บุคคลทั่วไป กำลังดูหัวข้อนี้

ออฟไลน์ BLG-Game

  • Administrator
  • Hero Member
  • *********
  • กระทู้: 2521
    • ดูรายละเอียด
    • www.blggames.com


พิเศษ! สิ้นสุดการรอคอย! เสียงไทย+ซับไทย มาสเตอร์
&
แม่มาแล้วธานอส!
เตรียมตัวให้พร้อมก่อนกับอุบัติกำเนิดของ CAPTAIN MARVEL
วีรสตรีคนใหม่ของ MARVEL
จักรวาลภาพยนตร์ที่ตัวตน พลัง และตำนานอันเลื่องลือ
ของเหล่าวีรสตรีแกร่ง มัดใจ คนดูมานานกว่าทศวรรษ
สู่ความมันส์ครั้งใหม่ เหนือกว่า ไกลกว่า เร็วกว่า!

••• ชัด HQ 1080p BluRay  •••
เสียงไทย 2.0 + ซับไทย Master From iTunes


 
Captain Marvel_(2019)
  เรื่องราวของของแครอล แดนเวอร์ส หรือ กัปตัน มาร์เวล ฮีโร่ที่ทรงพลังที่สุดในจักรวาลมาร์เวล
กับการปกป้องโลกจากสงครามระดับจักรวาลระหว่างเอเลี่ยน 2 เผ่าพันธุ์ มาร์เวล สตูดิโอส์ จะพาเราไปพบกับการผจญภัย
ที่คุณไม่เคยเห็นมาก่อนในประวัติศาสตร์ของจักรวาลภาพยนตร์มาร์เวล พบกัน มีนาคม 2562 !!!
.
.
เกร็ดจากภาพยนตร์
 เควิน ไฟกี ประธานบริหารมาร์เวลสตูดิโอได้ออกมายืนยันอีกครั้ง รวมถึงอธิบายความพิเศษของ Captain Marvel
ว่าเธอแตกต่างจากซูเปอร์ฮีโร่คนอื่นอย่างไร  Captain Marvel คือตัวละครในคอมมิกของเรา เธอมีเรื่องราวที่น่าสนใจ
เพราะส่วนหนึ่งของเธออยู่บนโลก ในขณะที่อีกส่วนหนึ่งของเธอคือพลังระดับคอสมิก และตอนนี้เราได้สร้างภาพยนตร์มากมาย
ที่มีเหตุการณ์เกิดขึ้นบนโลก รวมไปถึงการผจญภัยในอวกาศผ่าน Avengers, Guardians of the Galaxy และ Thor
พวกเราคิดว่านี่เป็นช่วงเวลาที่เหมาะสมแล้วที่เราจะแนะนำกัปตันมาร์เวลมาสู่โลก เธอคือหนึ่งในตัวละครที่เป็นที่นิยมมากที่สุดคนหนึ่งในคอมมิกของเรา
แถมยังเป็นหนึ่งในตัวละครที่ทรงพลังมากที่สุดในคอมมิกด้วย และจะเป็นตัวละครที่แข็งแกร่งมากที่สุดใน Marvel Cinematic Universe





อ้างถึง
General
Unique ID                                : 123144261488522934623672061321669145072 (0x5CA4B8D973229DDC4D71C61C7B7A71F0)
Complete name                            : E:\DL MOVIE BIT\Captain Marvel (2019)\Captain.Marvel.2019.1080p.BluRay.x264.mkv
Format                                   : Matroska
Format version                           : Version 4
File size                                : 9.95 GiB
Duration                                 : 2 h 3 min
Overall bit rate                         : 11.5 Mb/s
Encoded date                             : UTC 2019-05-29 04:39:46
Writing application                      : mkvmerge v34.0.0 ('Sight and Seen') 64-bit
Writing library                          : libebml v1.3.7 + libmatroska v1.5.0
Cover                                    : Yes
Attachments                              : cover

Video
ID                                       : 1
Format                                   : AVC
Format/Info                              : Advanced Video Codec
Format profile                           : High@L4.1
Format settings                          : CABAC / 5 Ref Frames
Format settings, CABAC                   : Yes
Format settings, RefFrames               : 5 frames
Format settings, GOP                     : M=1, N=3
Codec ID                                 : V_MPEG4/ISO/AVC
Duration                                 : 2 h 3 min
Bit rate                                 : 8 611 kb/s
Width                                    : 1 920 pixels
Height                                   : 808 pixels
Display aspect ratio                     : 2.40:1
Frame rate mode                          : Constant
Frame rate                               : 23.976 (24000/1001) FPS
Color space                              : YUV
Chroma subsampling                       : 4:2:0
Bit depth                                : 8 bits
Scan type                                : Progressive
Bits/(Pixel*Frame)                       : 0.232
Stream size                              : 7.44 GiB (75%)
Writing library                          : x264 core 157 r2970 5493be8
Encoding settings                        : cabac=1 / ref=5 / deblock=1:-3:-3 / analyse=0x3:0x113 / me=umh / subme=8 / psy=1 / psy_rd=1.00:0.00 / mixed_ref=1 / me_range=16 / chroma_me=1 / trellis=1 / 8x8dct=1 / cqm=0 / deadzone=21,11 / fast_pskip=1 / chroma_qp_offset=-2 / threads=25 / lookahead_threads=4 / sliced_threads=0 / nr=0 / decimate=1 / interlaced=0 / bluray_compat=0 / constrained_intra=0 / bframes=3 / b_pyramid=2 / b_adapt=1 / b_bias=0 / direct=3 / weightb=1 / open_gop=0 / weightp=2 / keyint=250 / keyint_min=23 / scenecut=40 / intra_refresh=0 / rc_lookahead=50 / rc=2pass / mbtree=1 / bitrate=8611 / ratetol=1.0 / qcomp=0.60 / qpmin=0 / qpmax=69 / qpstep=4 / cplxblur=20.0 / qblur=0.5 / ip_ratio=1.40 / aq=1:1.00
Language                                 : English
Default                                  : Yes
Forced                                   : No

Audio #1
ID                                       : 2
Format                                   : DTS
Format/Info                              : Digital Theater Systems
Codec ID                                 : A_DTS
Duration                                 : 2 h 3 min
Bit rate mode                            : Constant
Bit rate                                 : 1 509 kb/s
Channel(s)                               : 6 channels
Channel layout                           : C L R Ls Rs LFE
Sampling rate                            : 48.0 kHz
Frame rate                               : 93.750 FPS (512 SPF)
Bit depth                                : 24 bits
Compression mode                         : Lossy
Stream size                              : 1.30 GiB (13%)
Language                                 : English
Default                                  : No
Forced                                   : No

Audio #2
ID                                       : 3
Format                                   : E-AC-3 JOC
Format/Info                              : Enhanced AC-3 with Joint Object Coding
Commercial name                          : Dolby Digital Plus with Dolby Atmos
Codec ID                                 : A_EAC3
Duration                                 : 2 h 3 min
Bit rate mode                            : Constant
Bit rate                                 : 576 kb/s
Channel(s)                               : 6 channels
Channel layout                           : L R C LFE Ls Rs
Sampling rate                            : 48.0 kHz
Frame rate                               : 31.250 FPS (1536 SPF)
Compression mode                         : Lossy
Delay relative to video                  : 750 ms
Stream size                              : 510 MiB (5%)
Language                                 : English
Service kind                             : Complete Main
Default                                  : No
Forced                                   : No
Complexity index                         : 16
Number of dynamic objects                : 15
Bed channel count                        : 1 channel
Bed channel configuration                : LFE

Audio #3
ID                                       : 4
Format                                   : AAC LC
Format/Info                              : Advanced Audio Codec Low Complexity
Codec ID                                 : A_AAC-2
Duration                                 : 2 h 3 min
Bit rate                                 : 126 kb/s
Channel(s)                               : 2 channels
Channel layout                           : L R
Sampling rate                            : 48.0 kHz
Frame rate                               : 46.875 FPS (1024 SPF)
Compression mode                         : Lossy
Delay relative to video                  : 750 ms
Stream size                              : 111 MiB (1%)
Title                                    : Thai Master 2.0
Language                                 : Thai
Default                                  : No
Forced                                   : No

Audio #4
ID                                       : 5
Format                                   : AC-3
Format/Info                              : Audio Coding 3
Commercial name                          : Dolby Digital
Codec ID                                 : A_AC3
Duration                                 : 2 h 3 min
Bit rate mode                            : Constant
Bit rate                                 : 640 kb/s
Channel(s)                               : 6 channels
Channel layout                           : L R C LFE Ls Rs
Sampling rate                            : 48.0 kHz
Frame rate                               : 31.250 FPS (1536 SPF)
Bit depth                                : 16 bits
Compression mode                         : Lossy
Delay relative to video                  : 750 ms
Stream size                              : 566 MiB (6%)
Title                                    : Thai Modify 5.1
Language                                 : Thai
Service kind                             : Complete Main
Default                                  : Yes
Forced                                   : No

Text #1
ID                                       : 6
Format                                   : VobSub
Muxing mode                              : zlib
Codec ID                                 : S_VOBSUB
Codec ID/Info                            : Picture based subtitle format used on DVDs
Duration                                 : 2 h 2 min
Bit rate                                 : 8 374 b/s
Count of elements                        : 1665
Stream size                              : 7.33 MiB (0%)
Language                                 : English
Default                                  : Yes
Forced                                   : No

Text #2
ID                                       : 7
Format                                   : PGS
Muxing mode                              : zlib
Codec ID                                 : S_HDMV/PGS
Codec ID/Info                            : Picture based subtitle format used on BDs/HD-DVDs
Duration                                 : 2 h 2 min
Bit rate                                 : 32.8 kb/s
Count of elements                        : 3336
Stream size                              : 28.7 MiB (0%)
Title                                    : Eng PGS (SDH)
Language                                 : English
Default                                  : No
Forced                                   : No

Text #3
ID                                       : 8
Format                                   : PGS
Muxing mode                              : zlib
Codec ID                                 : S_HDMV/PGS
Codec ID/Info                            : Picture based subtitle format used on BDs/HD-DVDs
Duration                                 : 1 h 53 min
Bit rate                                 : 24.0 kb/s
Count of elements                        : 2540
Stream size                              : 19.5 MiB (0%)
Title                                    : Eng PGS
Language                                 : English
Default                                  : No
Forced                                   : No

Text #4
ID                                       : 9
Format                                   : PGS
Muxing mode                              : zlib
Codec ID                                 : S_HDMV/PGS
Codec ID/Info                            : Picture based subtitle format used on BDs/HD-DVDs
Duration                                 : 2 h 2 min
Bit rate                                 : 22.6 kb/s
Count of elements                        : 2640
Stream size                              : 19.8 MiB (0%)
Title                                    : Thai PGS
Language                                 : Thai
Default                                  : No
Forced                                   : No

Menu
00:00:00.000                             : en:00:00:00.000
00:06:52.120                             : en:00:06:52.120
00:14:07.889                             : en:00:14:07.889
00:23:18.272                             : en:00:23:18.272
00:29:38.026                             : en:00:29:38.026
00:35:07.772                             : en:00:35:07.772
00:44:08.437                             : en:00:44:08.437
00:50:43.499                             : en:00:50:43.499
00:56:18.625                             : en:00:56:18.625
01:03:02.821                             : en:01:03:02.821
01:11:17.398                             : en:01:11:17.398
01:17:49.164                             : en:01:17:49.164
01:27:03.051                             : en:01:27:03.051
01:33:22.430                             : en:01:33:22.430
01:40:51.796                             : en:01:40:51.796
01:46:25.087                             : en:01:46:25.087
01:52:49.888                             : en:01:52:49.888



http://www.mekafile.com/dl.php?f=vh8e7dbUCstO
ไฟล์เกม VIP เกมไหนมีปัญหาโหลดไม่ใด้ PM ส่งข้อความถึง Admin
ไฟล์เก่าเว็บ RabbitFile สามารถโหลดใด้เพียงเปลี่ยน Url จาก http://www.rabbitfile.com/....... เป็น http://www.mekafile.com/........