ผู้เขียน หัวข้อ: Dark Phoenix (2019) : X-เม็น ดาร์ก ฟีนิกซ์ [พากย์ไทยโรง 2.0 + เสียงอังกฤษ 2.0] - ซูมชัดร้อนๆ  (อ่าน 883 ครั้ง)

0 สมาชิก และ 1 บุคคลทั่วไป กำลังดูหัวข้อนี้

ออฟไลน์ BLG-Game

  • Administrator
  • Hero Member
  • *********
  • กระทู้: 2322
    • ดูรายละเอียด
    • www.blggames.com


ภาพยนตร์ผลงาน ผกก. ไซมอน คินเบิร์ก
เตรียมพร้อมก่อนพบ 'บทสรุป' ของการเดินทางที่ดำเนินมากว่า 20 ปีของเหล่ามนุษย์พลังเหนือโลก ภายใต้ชายคาของ 20th Century Fox!
&
••• 720p.HDCAM.THR2.0.x264 •••
พากย์ไทยโรง 2.0 + เสียงอังกฤษ 2.0



X-Men Dark Phoenix จีน เกรย์ เริ่มที่จะพัฒนาศักยภาพอันเหลือเชื่อของเธอ ซึ่งนั่นมันได้นำไปสู่หนทางอันเลวร้าย แล้วมันก็ทำให้เธอกลายเป็นดาร์คฟีนิกซ์ ตอนนี้เหล่าเอ็กซ์-เมนจึงจำเป็นต้องตัดสินใจว่าชีวิตของสมาชิกในทีมมันจะมีค่ามากกว่าชีวิตของคนทั้งโลกหรือไม่!!





อ้างถึง
Format                      : Matroska
Format version              : Version 4
File size                   : 2.68 GiB
Duration                    : 1 h 46 min
Overall bit rate            : 3 611 kb/s
Movie name                  : Dark Phoenix 2019.720p.HDCAM.THR2.0.x264_By Mr.Captain@CtHts

Video
ID                          : 1
Format                      : AVC
Format/Info                 : Advanced Video Codec
Format profile              : High@L3.1
Format settings             : CABAC / 6 Ref Frames
Format settings, CABAC      : Yes
Format settings, Reference  : 6 frames
Codec ID                    : V_MPEG4/ISO/AVC
Duration                    : 1 h 46 min
Bit rate mode               : Variable
Bit rate                    : 3 000 kb/s
Maximum bit rate            : 16.4 Mb/s
Width                       : 1 280 pixels
Height                      : 536 pixels
Display aspect ratio        : 2.40:1
Frame rate mode             : Constant
Frame rate                  : 30.000 FPS
Standard                    : Component
Color space                 : YUV
Chroma subsampling          : 4:2:0
Bit depth                   : 8 bits
Scan type                   : Progressive
Bits/(Pixel*Frame)          : 0.146
Stream size                 : 2.22 GiB (83%)
Title                       : Dark Phoenix 2019.720p.HDCAM.THR2.0.x264_By Mr.Captain@CtHts
Writing library             : x264 core 148
Encoding settings           : cabac=1 / ref=6 / deblock=1:0:0 / analyse=0x3:0x113 / me=hex / subme=7 / psy=1 / psy_rd=1.00:0.00 / mixed_ref=1 / me_range=16 / chroma_me=1 / trellis=1 / 8x8dct=1 / cqm=1 / deadzone=21,11 / fast_pskip=1 / chroma_qp_offset=-2 / threads=17 / lookahead_threads=2 / sliced_threads=0 / slices=1 / nr=0 / decimate=1 / interlaced=0 / minigop=0 / stitchable=1 / constrained_intra=0 / bframes=3 / b_pyramid=0 / b_adapt=1 / b_bias=0 / direct=1 / weightb=1 / open_gop=1 / weightp=2 / keyint=250 / keyint_min=25 / scenecut=40 / intra_refresh=0 / rc_lookahead=40 / rc=abr / mbtree=1 / bitrate=3000 / ratetol=1.0 / qcomp=0.60 / qpmin=3 / qpmax=69 / qpstep=4 / vbv_maxrate=16400 / vbv_bufsize=16400 / nal_hrd=vbr / filler=0 / ip_ratio=1.40 / aq=1:1.00
Language                    : English
Default                     : Yes
Forced                      : No
Color range                 : Limited
Color primaries             : BT.709
Transfer characteristics    : BT.709
Matrix coefficients         : BT.709

Audio #1
ID                          : 2
Format                      : AC-3
Format/Info                 : Audio Coding 3
Commercial name             : Dolby Digital
Codec ID                    : A_AC3
Duration                    : 1 h 46 min
Bit rate mode               : Constant
Bit rate                    : 384 kb/s
Channel(s)                  : 2 channels
Channel layout              : L R
Sampling rate               : 48.0 kHz
Frame rate                  : 31.250 FPS (1536 SPF)
Bit depth                   : 16 bits
Compression mode            : Lossy
Stream size                 : 291 MiB (11%)
Title                       : ThaiRong 2.0 @ 384 kb/s By Mr.Captain@CtHts
Language                    : Thai
Service kind                : Complete Main
Default                     : No
Forced                      : No

Audio #2
ID                          : 3
Format                      : AC-3
Format/Info                 : Audio Coding 3
Commercial name             : Dolby Digital
Codec ID                    : A_AC3
Duration                    : 1 h 46 min
Bit rate mode               : Constant
Bit rate                    : 224 kb/s
Channel(s)                  : 2 channels
Channel layout              : L R
Sampling rate               : 48.0 kHz
Frame rate                  : 31.250 FPS (1536 SPF)
Bit depth                   : 16 bits
Compression mode            : Lossy
Stream size                 : 170 MiB (6%)
Title                       : English 2.0 @ 224 kb/s
Language                    : English
Service kind                : Complete Main
Default                     : Yes
Forced                      : No






http://www.mekafile.com/dl.php?f=n75be6bUZtlm
ไฟล์เกม VIP เกมไหนมีปัญหาโหลดไม่ใด้ PM ส่งข้อความถึง Admin
ไฟล์เก่าเว็บ RabbitFile สามารถโหลดใด้เพียงเปลี่ยน Url จาก http://www.rabbitfile.com/....... เป็น http://www.mekafile.com/........