ผู้เขียน หัวข้อ: Love Actually (2003) [10th Anniversary Edition] : ทุกหัวใจมีรัก [Mini 1080p, HQ 1080p, BDRM Full Bitrate]  (อ่าน 439 ครั้ง)

0 สมาชิก และ 1 บุคคลทั่วไป กำลังดูหัวข้อนี้

ออฟไลน์ BLG-Game

  • Administrator
  • Hero Member
  • *********
  • กระทู้: 2216
    • ดูรายละเอียด
    • www.blggames.com


...ผู้คนโดยทั่วไปเริ่มมองว่า เราอาศัยอยู่ในโลกแห่งความเกลียดชังและความโลภ แต่ฉันไม่คิดเช่นนั้น
สำหรับฉันดูเหมือนความรักปรากฏในทุกที่ยากจะลืม, น่าเศร้าใจ, ปลาบปลื้ม, ตื่นเต้น, คาดไม่ถึง, ไม่ได้ดั่งใจ, อึดอัด
อธิบายไม่ได้, ไร้ซึ่งความงดงาม, ความไม่เท่าเทียม อันที่จริง ความรักปรากฏอยู่ทุกแห่งหน
ตั้งแต่นายกรัฐมนตรีหนุ่มโสดคนใหม่ (ฮิวจ์ แกรนต์) ที่เกิดตกหลุมรัก หนึ่งในสมาชิกหน้าใหม่ของทีม นาตาลี (มาร์ติน แม็คคัตเชียน)
หลังจากก้าวสู่บ้านเลขที่ 10 ถนนดาวนิ่ง ไปจนถึงนักเขียนหนุ่ม เจมี่ (โคลิน เฟิร์ธ) ผู้หนีไปอยู่แดนใต้ของฝรั่งเศส
เพื่อรักษาหัวใจที่แหลกสลาย และได้พบรัก ณ ทะเลสาบ
ตั้งแต่ผู้หญิงที่แต่งงานแล้ว คาเรน (เอ็มม่า ธอมป์สัน) ผู้กำลังสงสัยว่าสามีของเธอ แฮร์รี่ (อลัน ริกแมน) กำลังนอกใจ
ไปจนถึงเจ้าสาวหมาดๆ จูเลียต (คีร่า ไนต์ลีย์) ที่เข้าใจท่าทีห่างเหินของเพื่อนซี้สามี ผิดไปจากความเป็นจริง
ตั้งแต่เด็กชายที่หาทางเรียกร้องความสนใจ ของเพื่อนหญิงในโรงเรียน ผู้ไกลเกินกว่าเขาจะเอื้อมถึง
ไปจนถึงพ่อเลี้ยงที่ตกพุ่มม่าย แดเนียล (เลียม นีสัน) ที่พยายามทำความเข้าใจ กับลูกชายที่เขาแทบไม่รู้จัก
ตั้งแต่หญิงสาวอเมริกันที่ไม่มีใครรัก ซาร่าห์ (ลอร่า ลินนีย์) ผู้ไขว่คว้าโอกาสกับหนุ่มที่เธอปิ๊งในที่ทำงาน
ไปจนถึงร็อกสตาร์ตกรุ่นผู้สูงวัย บิลลี่ แม็ก (บิลล์ ไนฮีย์) กับการพยายามกลับคืนสู่วงการ ด้วยวิธีการแบบดันทุรังของเขา

ความรักคือต้นเหตุของความวุ่นวายทั้งหมด...
เมื่อชีวิตและความรักในนครลอนดอน มาเจอกัน ผสมผสาน จนมาถึงจุดไคลแม็กซ์ ในช่วงคริสต์มาสอีฟ ครั้งแล้วครั้งเล่า
กับเหตุการณ์สุดโรแมนติก, สนุกสนาน และหวานอมขมกลืน สำหรับคนที่โชคดีหรือโชคร้าย พอที่จะตกอยู่ใต้มนต์สะกดของความรัก !!!





[พากย์ไทย 5.1 + อังกฤษ DTS-HD MA 5.1]-[บรรยายไทย + อังกฤษ]-[เสียงไทย + ซับไทย MASTER]


Version ฉลองครบรอบ 10 ปี [10th Anniversary Edition]

เล็กพริกขี้หนู 1080p Super HQ > http://www.mekafile.com/dl.php?f=BX72dcb6mNsd
INFO ดูรายละเอียดของไฟล์
Spoiler: show



ชัด Super HQ +กระหึ่ม > http://www.mekafile.com/dl.php?f=Jr08d4b6mOe5
INFO ดูรายละเอียดของไฟล์
Spoiler: show



BDRM Full Bitrate > http://www.mekafile.com/dl.php?f=Fja16fb6mQUa
INFO ดูรายละเอียดของไฟล์
Spoiler: show


BDRM Full Bitrate > http://www.mekafile.com/dl.php?f=100a2fe1xcV4o
INFO ดูรายละเอียดของไฟล์
Spoiler: show



*เวอร์ชั่นปรกติ

เล็กพริกขี้หนู 1080p Super HQ > http://www.mekafile.com/dl.php?f=z905a91xc2iX
INFO ดูรายละเอียดของไฟล์
Spoiler: show
Format                                   : Matroska
Format version                           : Version 4 / Version 2
File size                                : 4.32 GiB
Duration                                 : 2h 14mn
Overall bit rate                         : 4 581 Kbps
Movie name                               : {MINI Super-HQ}Love.Actually.2003.1080p.BrRip.x264.DTS_by NongZEZA@CtHts
Encoded date                             : UTC 2010-02-22 21:41:31
Writing application                      : mkvmerge v5.9.0 ( On The Loose ) built on Dec  9 2012 15:37:01
Writing library                          : libebml v1.3.0 + libmatroska v1.4.0

Video
ID                                       : 1
Format                                   : AVC
Format/Info                              : Advanced Video Codec
Format profile                           : High@L4.0
Format settings, CABAC                   : Yes
Format settings, ReFrames                : 5 frames
Codec ID                                 : V_MPEG4/ISO/AVC
Duration                                 : 2h 14mn
Bit rate                                 : 3 209 Kbps
Width                                    : 1 920 pixels
Height                                   : 816 pixels
Display aspect ratio                     : 2.35:1
Frame rate mode                          : Constant
Frame rate                               : 23.976 fps
Color space                              : YUV
Chroma subsampling                       : 4:2:0
Bit depth                                : 8 bits
Scan type                                : Progressive
Bits/(Pixel*Frame)                       : 0.085
Stream size                              : 3.10 GiB (72%)
Title                                    : {MINI Super-HQ}Love.Actually.2003.1080p.BrRip.x264.DTS_by NongZEZA@CtHts
Writing library                          : x264 core 130 r2273 b3065e6
Encoding settings                        : cabac=1 / ref=5 / deblock=1:0:0 / analyse=0x3:0x113 / me=umh / subme=11 / psy=1 / psy_rd=1.00:0.00 / mixed_ref=1 / me_range=32 / chroma_me=1 / trellis=2 / 8x8dct=1 / cqm=0 / deadzone=21,11 / fast_pskip=1 / chroma_qp_offset=-2 / threads=12 / lookahead_threads=1 / sliced_threads=0 / nr=0 / decimate=1 / interlaced=0 / bluray_compat=0 / constrained_intra=0 / bframes=5 / b_pyramid=2 / b_adapt=2 / b_bias=0 / direct=1 / weightb=1 / open_gop=0 / weightp=2 / keyint=240 / keyint_min=24 / scenecut=40 / intra_refresh=0 / rc_lookahead=40 / rc=2pass / mbtree=1 / bitrate=3209 / ratetol=1.0 / qcomp=0.60 / qpmin=0 / qpmax=69 / qpstep=4 / cplxblur=20.0 / qblur=0.5 / ip_ratio=1.40 / aq=1:1.00
Language                                 : English
Default                                  : Yes
Forced                                   : No
Color primaries                          : BT.709
Transfer characteristics                 : BT.709
Matrix coefficients                      : BT.709

Audio #1
ID                                       : 2
Format                                   : AC-3
Format/Info                              : Audio Coding 3
Mode extension                           : CM (complete main)
Format settings, Endianness              : Big
Codec ID                                 : A_AC3
Duration                                 : 2h 14mn
Bit rate mode                            : Constant
Bit rate                                 : 448 Kbps
Channel(s)                               : 6 channels
Channel positions                        : Front: L C R, Side: L R, LFE
Sampling rate                            : 48.0 KHz
Bit depth                                : 16 bits
Compression mode                         : Lossy
Stream size                              : 432 MiB (10%)
Title                                    : Thai Dolby 5.1 ch Modify By CtHts
Language                                 : Thai
Default                                  : Yes
Forced                                   : Yes

Audio #2
ID                                       : 3
Format                                   : DTS
Format/Info                              : Digital Theater Systems
Mode                                     : 16
Format settings, Endianness              : Big
Codec ID                                 : A_DTS
Duration                                 : 2h 14mn
Bit rate mode                            : Constant
Bit rate                                 : 755 Kbps
Channel(s)                               : 6 channels
Channel positions                        : Front: L C R, Side: L R, LFE
Sampling rate                            : 48.0 KHz
Bit depth                                : 24 bits
Compression mode                         : Lossy
Stream size                              : 728 MiB (16%)
Title                                    : English DTS
Language                                 : English
Default                                  : No
Forced                                   : No

Text #1
ID                                       : 4
Format                                   : VobSub
Codec ID                                 : S_VOBSUB
Codec ID/Info                            : The same subtitle format used on DVDs
Title                                    : Thai 480p [By FreeAndFree]
Language                                 : Thai
Default                                  : No
Forced                                   : No

Text #2
ID                                       : 5
Format                                   : VobSub
Codec ID                                 : S_VOBSUB
Codec ID/Info                            : The same subtitle format used on DVDs
Title                                    : Thai 720p [By FreeAndFree]
Language                                 : Thai
Default                                  : No
Forced                                   : No

Text #3
ID                                       : 6
Format                                   : VobSub
Codec ID                                 : S_VOBSUB
Codec ID/Info                            : The same subtitle format used on DVDs
Title                                    : Thai 1080p [By FreeAndFree]
Language                                 : Thai
Default                                  : Yes
Forced                                   : Yes

Text #4
ID                                       : 7
Format                                   : VobSub
Codec ID                                 : S_VOBSUB
Codec ID/Info                            : The same subtitle format used on DVDs
Title                                    : Thai 1080p BIG [By FreeAndFree]
Language                                 : Thai
Default                                  : No
Forced                                   : No

Text #5
ID                                       : 8
Format                                   : VobSub
Codec ID                                 : S_VOBSUB
Codec ID/Info                            : The same subtitle format used on DVDs
Title                                    : Thai 1080p Out [By FreeAndFree]
Language                                 : Thai
Default                                  : No
Forced                                   : No

Text #6
ID                                       : 9
Format                                   : VobSub
Codec ID                                 : S_VOBSUB
Codec ID/Info                            : The same subtitle format used on DVDs
Title                                    : Thai 1080p Out-BIG [By FreeAndFree]
Language                                 : Thai
Default                                  : No
Forced                                   : No

Text #7
ID                                       : 10
Format                                   : PGS
Codec ID                                 : S_HDMV/PGS
Codec ID/Info                            : The same subtitle format used on BDs/HD-DVDs
Title                                    : Thai THM PGS [By FreeAndFree]
Language                                 : Thai
Default                                  : No
Forced                                   : No

Text #8
ID                                       : 11
Format                                   : PGS
Codec ID                                 : S_HDMV/PGS
Codec ID/Info                            : The same subtitle format used on BDs/HD-DVDs
Title                                    : Thai DB7N PGS [By FreeAndFree]
Language                                 : Thai
Default                                  : No
Forced                                   : No

Text #9
ID                                       : 12
Format                                   : PGS
Codec ID                                 : S_HDMV/PGS
Codec ID/Info                            : The same subtitle format used on BDs/HD-DVDs
Title                                    : Thai ANGN PGS [By FreeAndFree]
Language                                 : Thai
Default                                  : No
Forced                                   : No

Text #10
ID                                       : 13
Format                                   : PGS
Codec ID                                 : S_HDMV/PGS
Codec ID/Info                            : The same subtitle format used on BDs/HD-DVDs
Title                                    : English
Language                                 : English
Default                                  : No
Forced                                   : No

Menu
00:00:00.000                             : en:Chapter 1
00:11:21.389                             : en:Chapter 2
00:22:41.777                             : en:Chapter 3
00:33:20.248                             : en:Chapter 4
00:45:25.889                             : en:Chapter 5
00:56:17.707                             : en:Chapter 6
01:06:25.147                             : en:Chapter 7
01:17:27.642                             : en:Chapter 8
01:28:44.360                             : en:Chapter 9
01:41:23.869                             : en:Chapter 10
01:51:08.369                             : en:Chapter 11
02:00:30.097                             : en:Chapter 12



ชัด Super HQ +กระหึ่ม > http://www.mekafile.com/dl.php?f=1064a041xc0yC
INFO ดูรายละเอียดของไฟล์
Spoiler: show
Format                                   : Matroska
Format version                           : Version 4 / Version 2
File size                                : 11.9 GiB
Duration                                 : 2h 14mn
Overall bit rate mode                    : Variable
Overall bit rate                         : 12.7 Mbps
Movie name                               : Love Actually (2003) 1080p BDRip [Original Release] By NongZEZA@CtHts
Encoded date                             : UTC 2010-02-22 21:41:31
Writing application                      : mkvmerge v5.9.0 ( On The Loose ) built on Dec  9 2012 15:37:01
Writing library                          : libebml v1.3.0 + libmatroska v1.4.0

Video
ID                                       : 1
Format                                   : AVC
Format/Info                              : Advanced Video Codec
Format profile                           : High@L4.1
Format settings, CABAC                   : Yes
Format settings, ReFrames                : 5 frames
Codec ID                                 : V_MPEG4/ISO/AVC
Duration                                 : 2h 14mn
Nominal bit rate                         : 10.0 Mbps
Width                                    : 1 916 pixels
Height                                   : 816 pixels
Display aspect ratio                     : 2.35:1
Frame rate mode                          : Constant
Frame rate                               : 23.976 fps
Color space                              : YUV
Chroma subsampling                       : 4:2:0
Bit depth                                : 8 bits
Scan type                                : Progressive
Bits/(Pixel*Frame)                       : 0.268
Title                                    : Love Actually (2003) 1080p BDRip [Original Release] By NongZEZA@CtHts
Writing library                          : x264 core 67 r1165M 6841c5e
Encoding settings                        : cabac=1 / ref=5 / deblock=1:-3:-3 / analyse=0x3:0x113 / me=umh / subme=9 / psy_rd=1.4:0.7 / mixed_ref=1 / me_range=28 / chroma_me=1 / trellis=1 / 8x8dct=1 / cqm=2 / deadzone=6,4 / chroma_qp_offset=-4 / threads=6 / nr=0 / decimate=1 / mbaff=0 / bframes=4 / b_pyramid=1 / b_adapt=1 / b_bias=0 / direct=3 / wpredb=1 / keyint=250 / keyint_min=25 / scenecut=40 / rc=2pass / bitrate=10045 / ratetol=1.0 / qcomp=0.60 / qpmin=10 / qpmax=51 / qpstep=4 / cplxblur=20.0 / qblur=0.5 / ip_ratio=1.40 / pb_ratio=1.30 / aq=1:0.80
Language                                 : English
Default                                  : Yes
Forced                                   : No

Audio #1
ID                                       : 2
Format                                   : AC-3
Format/Info                              : Audio Coding 3
Mode extension                           : CM (complete main)
Format settings, Endianness              : Big
Codec ID                                 : A_AC3
Duration                                 : 2h 14mn
Bit rate mode                            : Constant
Bit rate                                 : 448 Kbps
Channel(s)                               : 6 channels
Channel positions                        : Front: L C R, Side: L R, LFE
Sampling rate                            : 48.0 KHz
Bit depth                                : 16 bits
Compression mode                         : Lossy
Stream size                              : 432 MiB (4%)
Title                                    : Thai Dolby 5.1 ch Modify By CtHts
Language                                 : Thai
Default                                  : Yes
Forced                                   : Yes

Audio #2
ID                                       : 3
Format                                   : DTS
Format/Info                              : Digital Theater Systems
Format profile                           : MA / Core
Mode                                     : 16
Format settings, Endianness              : Big
Codec ID                                 : A_DTS
Duration                                 : 2h 14mn
Bit rate mode                            : Variable
Bit rate                                 : Unknown / 1 509 Kbps
Channel(s)                               : 6 channels
Channel positions                        : Front: L C R, Side: L R, LFE
Sampling rate                            : 48.0 KHz
Bit depth                                : 16 bits
Compression mode                         : Lossless / Lossy
Title                                    : Eng DTS-HD MA 5.1
Language                                 : English
Default                                  : No
Forced                                   : No

Text #1
ID                                       : 4
Format                                   : VobSub
Codec ID                                 : S_VOBSUB
Codec ID/Info                            : The same subtitle format used on DVDs
Title                                    : Thai THM 1080p [By FreeAndFree]
Language                                 : Thai
Default                                  : Yes
Forced                                   : Yes

Text #2
ID                                       : 5
Format                                   : PGS
Codec ID                                 : S_HDMV/PGS
Codec ID/Info                            : The same subtitle format used on BDs/HD-DVDs
Title                                    : Thai THM PGS [By FreeAndFree]
Language                                 : Thai
Default                                  : No
Forced                                   : No

Text #3
ID                                       : 6
Format                                   : PGS
Codec ID                                 : S_HDMV/PGS
Codec ID/Info                            : The same subtitle format used on BDs/HD-DVDs
Title                                    : Thai DB7N PGS [By FreeAndFree]
Language                                 : Thai
Default                                  : No
Forced                                   : No

Text #4
ID                                       : 7
Format                                   : PGS
Codec ID                                 : S_HDMV/PGS
Codec ID/Info                            : The same subtitle format used on BDs/HD-DVDs
Title                                    : Thai ANGN PGS [By FreeAndFree]
Language                                 : Thai
Default                                  : No
Forced                                   : No

Text #5
ID                                       : 8
Format                                   : VobSub
Codec ID                                 : S_VOBSUB
Codec ID/Info                            : The same subtitle format used on DVDs
Title                                    : Thai DVD [By FreeAndFree]
Language                                 : Thai
Default                                  : No
Forced                                   : No

Text #6
ID                                       : 9
Format                                   : PGS
Codec ID                                 : S_HDMV/PGS
Codec ID/Info                            : The same subtitle format used on BDs/HD-DVDs
Title                                    : Eng PGS
Language                                 : English
Default                                  : No
Forced                                   : No



BDRM Full Bitrate > http://www.mekafile.com/dl.php?f=ja32a91xbYw2
INFO ดูรายละเอียดของไฟล์
Spoiler: show
DISC INFO:
Disc Title:     [BDRM] Love Actually (2003) [H264] by_NongZEZA
Disc Size:      23,836,272,640 bytes
Protection:     AACS
BD-Java:        No
BDInfo:         0.5.8


PLAYLIST REPORT:
Name:                   00000.MPLS
Length:                 2:14:52.704 (h:m:s.ms)
Size:                   23,836,164,096 bytes
Total Bitrate:          23.56 Mbps


VIDEO:
Codec                   Bitrate             Des--cription     
-----                   -------             -----------     
MPEG-4 AVC Video        19008 kbps          1080p / 23.976 fps / 16:9 / High Profile 4.1


AUDIO:
Codec                           Language        Bitrate         Des--cription     
-----                           --------        -------         -----------     
DTS-HD Master Audio             English         2019 kbps       5.1 / 48 kHz / 2019 kbps / 16-bit (DTS Core: 5.1 / 48 kHz / 1509 kbps / 16-bit)
Dolby Digital Audio             English         640 kbps        5.1 / 48 kHz / 640 kbps
Dolby Digital Audio             Thai            448 kbps        5.1 / 48 kHz / 448 kbps


SUBTITLES:
Codec                           Language        Bitrate         Des--cription     
-----                           --------        -------         -----------     
Presentation Graphics           Thai            27.570 kbps                     
Presentation Graphics           Thai            27.882 kbps                     
Presentation Graphics           Thai            31.889 kbps                     
Presentation Graphics           English         43.564 kbps                       


FILES:
Name            Time In         Length          Size            Total Bitrate   
----            -------         ------          ----            -------------   
00000.M2TS      0:00:00.000     2:14:52.704     23,836,164,096  23,581     

« แก้ไขครั้งสุดท้าย: ตุลาคม 20, 2017, 07:07:37 AM by Admin »
ไฟล์เกม VIP เกมไหนมีปัญหาโหลดไม่ใด้ PM ส่งข้อความถึง Admin
ไฟล์เก่าเว็บ RabbitFile สามารถโหลดใด้เพียงเปลี่ยน Url จาก http://www.rabbitfile.com/....... เป็น http://www.mekafile.com/........