ผู้เขียน หัวข้อ: Transcendence (2014) : ทรานส์เซนเด้นซ์ คอมพ์สมองคนพิฆาตโลก [HD2DVD, Mini 720p, Mini 1080p, HQ 1080p, BDRM Full Bitrate, Full Rip ISO]  (อ่าน 499 ครั้ง)

0 สมาชิก และ 1 บุคคลทั่วไป กำลังดูหัวข้อนี้

ออนไลน์ BLG-Game

  • Administrator
  • Hero Member
  • *********
  • กระทู้: 2216
    • ดูรายละเอียด
    • www.blggames.com


...ดอกเตอร์ วิล แคสเตอร์ (จอห์นนี เดปป์) คือนักวิทยาศาตร์ผู้เป็นหัวหน้าทีมวิจัยที่ศึกษาค้นคว้าเกี่ยวกับปัญญาประดิษฐ์
หรือ Artificial Intelligence พวกเขามีเป้าหมายในการสร้างเครื่องจักรที่มีความรู้สึกนึกคิดแบบมนุษย์และยังรวบรวมเอาความอัจฉริยะ
ความรู้ทั้งหมดที่เคยมีมาไว้ในเครื่องนี้เครื่องเดียว การทดลองของพวกเขากลายเป็นที่ถกเถียงอย่างมาก
และทำให้วิลกลายเป็นบุคคลที่มีชื่อเสียงแต่ทว่า ความโด่งดังที่เขาได้รับก็เป็นเหมือนดาบสองคม
เพราะมันทำให้เขากลายเป็นเป้าหมายหลักของกลุ่มนักเคลื่อนไหวหัวรุนแรงที่ต่อต้านเทคโนโลยี
หรือ "ริฟท์" (RIFT) ซึ่งพร้อมที่จะทำทุกวิถีทางเพื่อหยุดวิลให้ได้ ทว่าการที่ริฟท์ได้ลงมือกระทำการเพื่อหยุดยั้งวิล
กลับนำไปสู่วิวัฒนาการระหว่างมนุษย์กับคอมพิวเตอร์ที่น่าทึ่งที่สุดในโลก เรียกว่า "ทรานส์เซนเดนซ์"
นั่นคือ การเชื่อมต่อสมองของมนุษย์รวมเป็นหนึ่งเดียวกับคอมพิวเตอร์จนเกิดเป็น "คอมพิวเตอร์สมองคน" ที่อัจฉริยะที่สุดเท่าที่เคยมีมา
และมีพลังความคิดรูปแบบใหม่ ๆ ได้อย่างไร้ชีดจำกัด ซึ่งสำหรับภรรยาของวิลอย่าง เอฟวลีน (รีเบคก้า ฮอล)
และเพื่อนร่วมงาน แม็กซ์ วอเตอร์ (พอล เบททานีย์) สิ่งสำคัญนั้นไม่ใช่คำถามที่ว่าพวกเขาจะสามารถร่วมสร้าง ทรานส์เซนเดนส์ ได้หรือไม่ ..
แต่กลับเป็นคำถามว่า พวกเขา "ควร" ทำมันหรือเปล่า!!!




HD2DVD > http://www.mekafile.com/dl.php?f=ue02981xcqvR
INFO ดูรายละเอียดของไฟล์
Spoiler: show
Audio
- English 5.1
- Thai 5.1

Subtitle
- English
- Thai



เล็กพริกขี้หนู 720p http://www.mekafile.com/dl.php?f=Aaca251xcLlL
INFO ดูรายละเอียดของไฟล์
Spoiler: show
Format                                   : Matroska
Format version                           : Version 4 / Version 2
File size                                : 1.78 GiB
Duration                                 : 1h 59mn
Overall bit rate                         : 2 138 Kbps
Movie name                               : Transcendence.2014.720p.BrRip.x264.AC3_by NongZEZA@CtHts
Encoded date                             : UTC 2010-02-22 21:41:31
Writing application                      : mkvmerge v5.9.0 ( On The Loose ) built on Dec  9 2012 15:37:01
Writing library                          : libebml v1.3.0 + libmatroska v1.4.0

Video
ID                                       : 1
Format                                   : AVC
Format/Info                              : Advanced Video Codec
Format profile                           : High@L3.1
Format settings, CABAC                   : Yes
Format settings, ReFrames                : 4 frames
Codec ID                                 : V_MPEG4/ISO/AVC
Duration                                 : 1h 59mn
Bit rate                                 : 1 299 Kbps
Width                                    : 1 280 pixels
Height                                   : 536 pixels
Display aspect ratio                     : 2.40:1
Frame rate mode                          : Constant
Frame rate                               : 23.976 fps
Color space                              : YUV
Chroma subsampling                       : 4:2:0
Bit depth                                : 8 bits
Scan type                                : Progressive
Bits/(Pixel*Frame)                       : 0.079
Stream size                              : 1.05 GiB (59%)
Title                                    : Transcendence.2014.720p.BrRip.x264.AC3_by NongZEZA@CtHts
Writing library                          : x264 core 130 r2273 b3065e6
Encoding settings                        : cabac=1 / ref=3 / deblock=1:0:0 / analyse=0x3:0x113 / me=umh / subme=9 / psy=1 / psy_rd=1.00:0.00 / mixed_ref=1 / me_range=16 / chroma_me=1 / trellis=1 / 8x8dct=1 / cqm=0 / deadzone=21,11 / fast_pskip=1 / chroma_qp_offset=-2 / threads=12 / lookahead_threads=1 / sliced_threads=0 / nr=0 / decimate=1 / interlaced=0 / bluray_compat=0 / constrained_intra=0 / bframes=3 / b_pyramid=2 / b_adapt=1 / b_bias=0 / direct=1 / weightb=1 / open_gop=0 / weightp=2 / keyint=240 / keyint_min=24 / scenecut=40 / intra_refresh=0 / rc_lookahead=40 / rc=2pass / mbtree=1 / bitrate=1299 / ratetol=1.0 / qcomp=0.60 / qpmin=0 / qpmax=69 / qpstep=4 / cplxblur=20.0 / qblur=0.5 / ip_ratio=1.40 / aq=1:1.00
Language                                 : English
Default                                  : Yes
Forced                                   : No
Color primaries                          : BT.709
Transfer characteristics                 : BT.709
Matrix coefficients                      : BT.709

Audio #1
ID                                       : 2
Format                                   : AC-3
Format/Info                              : Audio Coding 3
Mode extension                           : CM (complete main)
Format settings, Endianness              : Big
Codec ID                                 : A_AC3
Duration                                 : 1h 59mn
Bit rate mode                            : Constant
Bit rate                                 : 384 Kbps
Channel(s)                               : 6 channels
Channel positions                        : Front: L C R, Side: L R, LFE
Sampling rate                            : 48.0 KHz
Bit depth                                : 16 bits
Compression mode                         : Lossy
Delay relative to video                  : 1s 600ms
Stream size                              : 328 MiB (18%)
Title                                    : Thai DVD Master
Language                                 : Thai
Default                                  : Yes
Forced                                   : Yes

Audio #2
ID                                       : 3
Format                                   : AC-3
Format/Info                              : Audio Coding 3
Mode extension                           : CM (complete main)
Format settings, Endianness              : Big
Codec ID                                 : A_AC3
Duration                                 : 1h 59mn
Bit rate mode                            : Constant
Bit rate                                 : 448 Kbps
Channel(s)                               : 6 channels
Channel positions                        : Front: L C R, Side: L R, LFE
Sampling rate                            : 48.0 KHz
Bit depth                                : 16 bits
Compression mode                         : Lossy
Stream size                              : 382 MiB (21%)
Title                                    : English AC3 5.1
Language                                 : English
Default                                  : No
Forced                                   : No

Text #1
ID                                       : 4
Format                                   : VobSub
Muxing mode                              : zlib
Codec ID                                 : S_VOBSUB
Codec ID/Info                            : The same subtitle format used on DVDs
Title                                    : Thai 480p
Language                                 : Thai
Default                                  : Yes
Forced                                   : No

Text #2
ID                                       : 5
Format                                   : VobSub
Codec ID                                 : S_VOBSUB
Codec ID/Info                            : The same subtitle format used on DVDs
Title                                    : English
Language                                 : English
Default                                  : No
Forced                                   : No

Menu
00:00:00.000                             : en:Chapter 1
00:11:20.930                             : en:Chapter 2
00:19:21.910                             : en:Chapter 3
00:31:00.858                             : en:Chapter 4
00:39:46.759                             : en:Chapter 5
00:50:20.517                             : en:Chapter 6
01:00:26.372                             : en:Chapter 7
01:11:08.055                             : en:Chapter 8
01:20:12.182                             : en:Chapter 9
01:29:36.120                             : en:Chapter 10
01:40:32.860                             : en:Chapter 11
01:50:53.855                             : en:Chapter 12



เล็กพริกขี้หนู 1080p Super HQ > http://www.mekafile.com/dl.php?f=433dae1xcmhA
INFO ดูรายละเอียดของไฟล์
Spoiler: show
Format                                   : Matroska
Format version                           : Version 4 / Version 2
File size                                : 3.78 GiB
Duration                                 : 1h 59mn
Overall bit rate                         : 4 533 Kbps
Movie name                               : {MINI Super-HQTranscendence.2014.1080p.BrRip.x264.DTS_by NongZEZA@CtHts
Encoded date                             : UTC 2010-02-22 21:41:31
Writing application                      : mkvmerge v5.9.0 ( On The Loose ) built on Dec  9 2012 15:37:01
Writing library                          : libebml v1.3.0 + libmatroska v1.4.0

Video
ID                                       : 1
Format                                   : AVC
Format/Info                              : Advanced Video Codec
Format profile                           : High@L4.0
Format settings, CABAC                   : Yes
Format settings, ReFrames                : 5 frames
Codec ID                                 : V_MPEG4/ISO/AVC
Duration                                 : 1h 59mn
Bit rate                                 : 3 388 Kbps
Width                                    : 1 920 pixels
Height                                   : 800 pixels
Display aspect ratio                     : 2.40:1
Frame rate mode                          : Constant
Frame rate                               : 23.976 fps
Color space                              : YUV
Chroma subsampling                       : 4:2:0
Bit depth                                : 8 bits
Scan type                                : Progressive
Bits/(Pixel*Frame)                       : 0.092
Stream size                              : 2.75 GiB (73%)
Title                                    : Transcendence.2014.1080p.BrRip.x264.DTS_by NongZEZA@CtHts
Writing library                          : x264 core 130 r2273 b3065e6
Encoding settings                        : cabac=1 / ref=5 / deblock=1:0:0 / analyse=0x3:0x113 / me=umh / subme=11 / psy=1 / psy_rd=1.00:0.00 / mixed_ref=1 / me_range=32 / chroma_me=1 / trellis=2 / 8x8dct=1 / cqm=0 / deadzone=21,11 / fast_pskip=1 / chroma_qp_offset=-2 / threads=12 / lookahead_threads=1 / sliced_threads=0 / nr=0 / decimate=1 / interlaced=0 / bluray_compat=0 / constrained_intra=0 / bframes=5 / b_pyramid=2 / b_adapt=2 / b_bias=0 / direct=1 / weightb=1 / open_gop=0 / weightp=2 / keyint=240 / keyint_min=24 / scenecut=40 / intra_refresh=0 / rc_lookahead=40 / rc=2pass / mbtree=1 / bitrate=3388 / ratetol=1.0 / qcomp=0.60 / qpmin=0 / qpmax=69 / qpstep=4 / cplxblur=20.0 / qblur=0.5 / ip_ratio=1.40 / aq=1:1.00
Language                                 : English
Default                                  : Yes
Forced                                   : No
Color primaries                          : BT.709
Transfer characteristics                 : BT.709
Matrix coefficients                      : BT.709

Audio #1
ID                                       : 2
Format                                   : AC-3
Format/Info                              : Audio Coding 3
Mode extension                           : CM (complete main)
Format settings, Endianness              : Big
Codec ID                                 : A_AC3
Duration                                 : 1h 59mn
Bit rate mode                            : Constant
Bit rate                                 : 384 Kbps
Channel(s)                               : 6 channels
Channel positions                        : Front: L C R, Side: L R, LFE
Sampling rate                            : 48.0 KHz
Bit depth                                : 16 bits
Compression mode                         : Lossy
Delay relative to video                  : 1s 600ms
Stream size                              : 328 MiB (8%)
Title                                    : Thai DVD Master
Language                                 : Thai
Default                                  : Yes
Forced                                   : Yes

Audio #2
ID                                       : 3
Format                                   : DTS
Format/Info                              : Digital Theater Systems
Mode                                     : 16
Format settings, Endianness              : Big
Codec ID                                 : A_DTS
Duration                                 : 1h 59mn
Bit rate mode                            : Constant
Bit rate                                 : 755 Kbps
Channel(s)                               : 6 channels
Channel positions                        : Front: L C R, Side: L R, LFE
Sampling rate                            : 48.0 KHz
Bit depth                                : 24 bits
Compression mode                         : Lossy
Stream size                              : 644 MiB (17%)
Title                                    : English DTS
Language                                 : English
Default                                  : No
Forced                                   : No

Text #1
ID                                       : 4
Format                                   : VobSub
Muxing mode                              : zlib
Codec ID                                 : S_VOBSUB
Codec ID/Info                            : The same subtitle format used on DVDs
Title                                    : Thai 480p
Language                                 : Thai
Default                                  : Yes
Forced                                   : No

Text #2
ID                                       : 5
Format                                   : VobSub
Codec ID                                 : S_VOBSUB
Codec ID/Info                            : The same subtitle format used on DVDs
Title                                    : English
Language                                 : English
Default                                  : No
Forced                                   : No

Menu
00:00:00.000                             : en:Chapter 1
00:11:20.930                             : en:Chapter 2
00:19:21.910                             : en:Chapter 3
00:31:00.858                             : en:Chapter 4
00:39:46.759                             : en:Chapter 5
00:50:20.517                             : en:Chapter 6
01:00:26.372                             : en:Chapter 7
01:11:08.055                             : en:Chapter 8
01:20:12.182                             : en:Chapter 9
01:29:36.120                             : en:Chapter 10
01:40:32.860                             : en:Chapter 11
01:50:53.855                             : en:Chapter 12



ชัด Super HQ +กระหึ่ม > http://www.mekafile.com/dl.php?f=rb3b431xcq3J
INFO ดูรายละเอียดของไฟล์
Spoiler: show
Format                                   : Matroska
Format version                           : Version 4 / Version 2
File size                                : 10.5 GiB
Duration                                 : 1h 59mn
Overall bit rate mode                    : Variable
Overall bit rate                         : 12.6 Mbps
Movie name                               : {Super-HQ}Transcendence.2014.1080p.BluRay.x264.DTS-HD MA 5.1_by NongZEZA@CtHts
Encoded date                             : UTC 2010-02-22 21:41:31
Writing application                      : mkvmerge v5.9.0 ( On The Loose ) built on Dec  9 2012 15:37:01
Writing library                          : libebml v1.3.0 + libmatroska v1.4.0

Video
ID                                       : 1
Format                                   : AVC
Format/Info                              : Advanced Video Codec
Format profile                           : High@L4.1
Format settings, CABAC                   : Yes
Format settings, ReFrames                : 5 frames
Codec ID                                 : V_MPEG4/ISO/AVC
Duration                                 : 1h 59mn
Nominal bit rate                         : 10.1 Mbps
Width                                    : 1 920 pixels
Height                                   : 800 pixels
Display aspect ratio                     : 2.40:1
Frame rate mode                          : Constant
Frame rate                               : 23.976 fps
Color space                              : YUV
Chroma subsampling                       : 4:2:0
Bit depth                                : 8 bits
Scan type                                : Progressive
Bits/(Pixel*Frame)                       : 0.273
Title                                    : {Super-HQ}Transcendence.2014.1080p.BluRay.x264.DTS-HD MA 5.1_by NongZEZA@CtHts
Writing library                          : x264 core 142 r2431 ac76440
Encoding settings                        : cabac=1 / ref=5 / deblock=1:-3:-3 / analyse=0x3:0x113 / me=umh / subme=11 / psy=1 / psy_rd=1.00:0.00 / mixed_ref=1 / me_range=48 / chroma_me=1 / trellis=2 / 8x8dct=1 / cqm=0 / deadzone=21,11 / fast_pskip=0 / chroma_qp_offset=-2 / threads=16 / lookahead_threads=1 / sliced_threads=0 / nr=0 / decimate=0 / interlaced=0 / bluray_compat=0 / constrained_intra=0 / bframes=6 / b_pyramid=2 / b_adapt=2 / b_bias=0 / direct=2 / weightb=1 / open_gop=0 / weightp=2 / keyint=240 / keyint_min=23 / scenecut=40 / intra_refresh=0 / rc_lookahead=240 / rc=2pass / mbtree=1 / bitrate=10070 / ratetol=1.0 / qcomp=0.65 / qpmin=0 / qpmax=27 / qpstep=4 / cplxblur=20.0 / qblur=0.5 / vbv_maxrate=50000 / vbv_bufsize=50000 / nal_hrd=none / filler=0 / ip_ratio=1.50 / aq=1:1.00
Language                                 : English
Default                                  : Yes
Forced                                   : No
Color primaries                          : BT.709
Transfer characteristics                 : BT.709
Matrix coefficients                      : BT.709

Audio #1
ID                                       : 2
Format                                   : AC-3
Format/Info                              : Audio Coding 3
Mode extension                           : CM (complete main)
Format settings, Endianness              : Big
Codec ID                                 : A_AC3
Duration                                 : 1h 59mn
Bit rate mode                            : Constant
Bit rate                                 : 384 Kbps
Channel(s)                               : 6 channels
Channel positions                        : Front: L C R, Side: L R, LFE
Sampling rate                            : 48.0 KHz
Bit depth                                : 16 bits
Compression mode                         : Lossy
Delay relative to video                  : 1s 600ms
Stream size                              : 328 MiB (3%)
Title                                    : Thai DVD Master
Language                                 : Thai
Default                                  : Yes
Forced                                   : Yes

Audio #2
ID                                       : 3
Format                                   : DTS
Format/Info                              : Digital Theater Systems
Format profile                           : MA / Core
Mode                                     : 16
Format settings, Endianness              : Big
Codec ID                                 : A_DTS
Duration                                 : 1h 59mn
Bit rate mode                            : Variable
Bit rate                                 : Unknown / 1 509 Kbps
Channel(s)                               : 6 channels
Channel positions                        : Front: L C R, Side: L R, LFE
Sampling rate                            : 48.0 KHz
Bit depth                                : 16 bits
Compression mode                         : Lossless / Lossy
Title                                    : English DTS-HD MA 5.1
Language                                 : English
Default                                  : No
Forced                                   : No

Text #1
ID                                       : 4
Format                                   : VobSub
Muxing mode                              : zlib
Codec ID                                 : S_VOBSUB
Codec ID/Info                            : The same subtitle format used on DVDs
Title                                    : Thai 480p
Language                                 : Thai
Default                                  : Yes
Forced                                   : No

Text #2
ID                                       : 5
Format                                   : VobSub
Codec ID                                 : S_VOBSUB
Codec ID/Info                            : The same subtitle format used on DVDs
Title                                    : English
Language                                 : English
Default                                  : No
Forced                                   : No

Menu
00:00:00.000                             : en:Chapter 1
00:11:20.930                             : en:Chapter 2
00:19:21.910                             : en:Chapter 3
00:31:00.858                             : en:Chapter 4
00:39:46.759                             : en:Chapter 5
00:50:20.517                             : en:Chapter 6
01:00:26.372                             : en:Chapter 7
01:11:08.055                             : en:Chapter 8
01:20:12.182                             : en:Chapter 9
01:29:36.120                             : en:Chapter 10
01:40:32.860                             : en:Chapter 11
01:50:53.855                             : en:Chapter 12



BDRM Full Bitrate > http://www.mekafile.com/dl.php?f=nd68991xd9qS
INFO ดูรายละเอียดของไฟล์
Spoiler: show
DISC INFO:

Disc Title:     [BDRM] Transcendence (2014)
Disc Size:      23,130,187,616 bytes
Protection:     AACS
BD-Java:        No
BDInfo:         0.5.8

PLAYLIST REPORT:

Name:                   00000.MPLS
Length:                 1:59:17.130 (h:m:s.ms)
Size:                   23,130,077,184 bytes
Total Bitrate:          25.85 Mbps

VIDEO:

Codec                   Bitrate             Des--cription     
-----                   -------             -----------     
MPEG-4 AVC Video        17871 kbps          1080p / 23.976 fps / 16:9 / High Profile 4.1

AUDIO:

Codec                           Language        Bitrate         Des--cription     
-----                           --------        -------         -----------     
DTS-HD Master Audio             English         2151 kbps       5.1 / 48 kHz / 2151 kbps / 16-bit (DTS Core: 5.1 / 48 kHz / 1509 kbps / 16-bit)
DTS-HD Master Audio             Thai            4166 kbps       5.1 / 48 kHz / 4166 kbps / 24-bit (DTS Core: 5.1 / 48 kHz / 1509 kbps / 24-bit)

SUBTITLES:

Codec                           Language        Bitrate         Des--cription     
-----                           --------        -------         -----------     
Presentation Graphics           English         22.683 kbps                     
Presentation Graphics           Thai            21.811 kbps                     
Presentation Graphics           Thai            21.811 kbps



Full Rip-ISO > http://www.mekafile.com/dl.php?f=t39a9d1xdbMB
INFO ดูรายละเอียดของไฟล์
Spoiler: show
DISC INFO:

Disc Title:     Transcendence.2014.Full Rip.BD-TH
Disc Size:      32,152,900,790 bytes
Protection:     AACS
BD-Java:        No
Extras:         50Hz Content
BDInfo:         0.5.8

PLAYLIST REPORT:

Name:                   00001.MPLS
Length:                 1:54:22.360 (h:m:s.ms)
Size:                   28,794,230,784 bytes
Total Bitrate:          33.57 Mbps

VIDEO:

Codec                   Bitrate             Des--cription
-----                   -------             -----------
MPEG-4 AVC Video        26982 kbps          1080i / 25 fps / 16:9 / High Profile 4.1

AUDIO:

Codec                           Language        Bitrate         Des--cription
-----                           --------        -------         -----------
DTS-HD Master Audio             English         2287 kbps       5.1 / 48 kHz / 2287 kbps / 16-bit (DTS Core: 5.1 / 48 kHz / 1509 kbps / 16-bit)
DTS-HD Master Audio             Thai            2308 kbps       5.1 / 48 kHz / 2308 kbps / 16-bit (DTS Core: 5.1 / 48 kHz / 1509 kbps / 16-bit)

SUBTITLES:

Codec                           Language        Bitrate         Des--cription
-----                           --------        -------         -----------
Presentation Graphics           English         22.103 kbps
Presentation Graphics           Thai            18.157 kbps
« แก้ไขครั้งสุดท้าย: ตุลาคม 18, 2017, 09:48:52 AM by Administrator »
ไฟล์เกม VIP เกมไหนมีปัญหาโหลดไม่ใด้ PM ส่งข้อความถึง Admin
ไฟล์เก่าเว็บ RabbitFile สามารถโหลดใด้เพียงเปลี่ยน Url จาก http://www.rabbitfile.com/....... เป็น http://www.mekafile.com/........