ผู้เขียน หัวข้อ: Miracle In Cell No.7 (2013) : ปาฏิหาริย์ห้องขังหมายเลข 7 [Mini 1080p]  (อ่าน 1444 ครั้ง)

0 สมาชิก และ 1 บุคคลทั่วไป กำลังดูหัวข้อนี้

ออนไลน์ BLG-Game

  • Administrator
  • Hero Member
  • *********
  • กระทู้: 2216
    • ดูรายละเอียด
    • www.blggames.com


...นักแสดงมากความสามารถ รยูซึงรยง กลับมาอีกครั้งกับบทบาทพ่อที่น่ารักที่สุดในโลกอีกครั้งหนึ่ง
แต่กลับต้องเข้าไปสู่ห้องขังสุดเลวร้ายที่รวบรวมคนประหลาดไว้ที่ห้องหมายเลข 7! ซึ่งเขารับบทเป็น "ยงกู" ผู้เป็นพ่อ
ที่สติไม่ดีของลูกสาวอายุ 6 ขวบ ภารกิจสุดป่วนของชาวห้องขังหมายเลข 7 ที่จะพาลูกสาวของยงกู "เยซึล"
เข้ามาใช้ชีวิตในห้องขังแห่งนี้ ซึ่งเป็นที่ที่ได้ชื่อว่า "บุคคลภายนอก ห้าม-เข้า!!" จึงเกิดขึ้น!!!





[พากย์ไทย 5.1+เกาหลี 5.1]-[บรรยายไทย+อังกฤษ]


Mini 1080p > http://www.mekafile.com/dl.php?f=X10f981x3DpO
INFO ดูรายละเอียดของไฟล์
Spoiler: show
Format                                  : Matroska
Format version                          : Version 4 / Version 2
File size                                : 3.32 GiB
Duration                                : 2h 7mn
Overall bit rate                        : 3 728 Kbps
Movie name                              : Miracle.In.Cell.No.7.BrRip.1080p.x264_by NongZEZA@CtHts
Encoded date                            : UTC 2010-02-22 21:41:31
Writing application                      : mkvmerge v5.9.0 ( On The Loose ) built on Dec  9 2012 15:37:01
Writing library                          : libebml v1.3.0 + libmatroska v1.4.0

Video
ID                                      : 1
Format                                  : AVC
Format/Info                              : Advanced Video Codec
Format profile                          : High@L4.0
Format settings, CABAC                  : Yes
Format settings, ReFrames                : 4 frames
Codec ID                                : V_MPEG4/ISO/AVC
Duration                                : 2h 7mn
Bit rate                                : 2 500 Kbps
Width                                    : 1 920 pixels
Height                                  : 816 pixels
Display aspect ratio                    : 2.35:1
Frame rate mode                          : Constant
Frame rate                              : 23.976 fps
Color space                              : YUV
Chroma subsampling                      : 4:2:0
Bit depth                                : 8 bits
Scan type                                : Progressive
Bits/(Pixel*Frame)                      : 0.067
Stream size                              : 2.29 GiB (69%)
Title                                    : Miracle.In.Cell.No.7.BrRip.1080p.x264_by NongZEZA@CtHts
Writing library                          : x264 core 120
Encoding settings                        : cabac=1 / ref=3 / deblock=1:0:0 / analyse=0x3:0x113 / me=umh / subme=9 / psy=1 / psy_rd=1.00:0.00 / mixed_ref=1 / me_range=16 / chroma_me=1 / trellis=1 / 8x8dct=1 / cqm=0 / deadzone=21,11 / fast_pskip=1 / chroma_qp_offset=-2 / threads=12 / sliced_threads=0 / nr=0 / decimate=1 / interlaced=0 / bluray_compat=0 / constrained_intra=0 / bframes=3 / b_pyramid=2 / b_adapt=2 / b_bias=0 / direct=1 / weightb=1 / open_gop=0 / weightp=2 / keyint=240 / keyint_min=24 / scenecut=40 / intra_refresh=0 / rc_lookahead=50 / rc=2pass / mbtree=1 / bitrate=2500 / ratetol=1.0 / qcomp=0.60 / qpmin=3 / qpmax=69 / qpstep=4 / cplxblur=20.0 / qblur=0.5 / ip_ratio=1.40 / aq=1:1.00
Language                                : Korean
Default                                  : Yes
Forced                                  : No
Color primaries                          : BT.709
Transfer characteristics                : BT.709
Matrix coefficients                      : BT.709

Audio #1
ID                                      : 2
Format                                  : AC-3
Format/Info                              : Audio Coding 3
Mode extension                          : CM (complete main)
Format settings, Endianness              : Big
Codec ID                                : A_AC3
Duration                                : 2h 7mn
Bit rate mode                            : Constant
Bit rate                                : 448 Kbps
Channel(s)                              : 6 channels
Channel positions                        : Front: L C R, Side: L R, LFE
Sampling rate                            : 48.0 KHz
Bit depth                                : 16 bits
Compression mode                        : Lossy
Stream size                              : 409 MiB (12%)
Title                                    : Thai DVD Master
Language                                : Thai
Default                                  : Yes
Forced                                  : Yes

Audio #2
ID                                      : 3
Format                                  : AC-3
Format/Info                              : Audio Coding 3
Mode extension                          : CM (complete main)
Format settings, Endianness              : Big
Codec ID                                : A_AC3
Duration                                : 2h 7mn
Bit rate mode                            : Constant
Bit rate                                : 640 Kbps
Channel(s)                              : 6 channels
Channel positions                        : Front: L C R, Side: L R, LFE
Sampling rate                            : 48.0 KHz
Bit depth                                : 16 bits
Compression mode                        : Lossy
Stream size                              : 584 MiB (17%)
Title                                    : Korean
Language                                : Korean
Default                                  : No
Forced                                  : No

Text #1
ID                                      : 4
Format                                  : VobSub
Codec ID                                : S_VOBSUB
Codec ID/Info                            : The same subtitle format used on DVDs
Title                                    : Thai 480p DVD Master
Language                                : Thai
Default                                  : No
Forced                                  : No

Text #2
ID                                      : 5
Format                                  : VobSub
Codec ID                                : S_VOBSUB
Codec ID/Info                            : The same subtitle format used on DVDs
Title                                    : Thai 1080p
Language                                : Thai
Default                                  : Yes
Forced                                  : Yes

Text #3
ID                                      : 6
Format                                  : VobSub
Codec ID                                : S_VOBSUB
Codec ID/Info                            : The same subtitle format used on DVDs
Title                                    : Thai 1080p Yellow
Language                                : Thai
Default                                  : No
Forced                                  : No

Text #4
ID                                      : 7
Format                                  : VobSub
Codec ID                                : S_VOBSUB
Codec ID/Info                            : The same subtitle format used on DVDs
Title                                    : Thai 1080p Out
Language                                : Thai
Default                                  : No
Forced                                  : No

Text #5
ID                                      : 8
Format                                  : VobSub
Codec ID                                : S_VOBSUB
Codec ID/Info                            : The same subtitle format used on DVDs
Title                                    : Thai 1080p BIG
Language                                : Thai
Default                                  : No
Forced                                  : No

Text #6
ID                                      : 9
Format                                  : PGS
Codec ID                                : S_HDMV/PGS
Codec ID/Info                            : The same subtitle format used on BDs/HD-DVDs
Title                                    : Thai PGS
Language                                : Thai
Default                                  : No
Forced                                  : No

Text #7
ID                                      : 10
Format                                  : PGS
Codec ID                                : S_HDMV/PGS
Codec ID/Info                            : The same subtitle format used on BDs/HD-DVDs
Title                                    : Thai PGS Yellow
Language                                : Thai
Default                                  : No
Forced                                  : No

Text #8
ID                                      : 11
Format                                  : PGS
Codec ID                                : S_HDMV/PGS
Codec ID/Info                            : The same subtitle format used on BDs/HD-DVDs
Title                                    : Thai PGS Out
Language                                : Thai
Default                                  : No
Forced                                  : No

Text #9
ID                                      : 12
Format                                  : UTF-8
Codec ID                                : S_TEXT/UTF8
Codec ID/Info                            : UTF-8 Plain Text
Title                                    : English
Language                                : English
Default                                  : No
Forced                                  : No

ไฟล์เกม VIP เกมไหนมีปัญหาโหลดไม่ใด้ PM ส่งข้อความถึง Admin
ไฟล์เก่าเว็บ RabbitFile สามารถโหลดใด้เพียงเปลี่ยน Url จาก http://www.rabbitfile.com/....... เป็น http://www.mekafile.com/........