ผู้เขียน หัวข้อ: Rio 2 (2014) : ริโอ เจ้านกฟ้าจอมมึน 2 (2D + 3D) [Mini 1080p, BDRM Full Bitrate, 3D Over-Under, 3D Full Rip-ISO]  (อ่าน 644 ครั้ง)

0 สมาชิก และ 1 บุคคลทั่วไป กำลังดูหัวข้อนี้

ออนไลน์ BLG-Game

  • Administrator
  • Hero Member
  • *********
  • กระทู้: 2216
    • ดูรายละเอียด
    • www.blggames.com


...ในภาพยนตร์เรื่อง RIO 2 บลู จูล และครอบครัวของพวกเขาคือ บีอา, ทีอาโก้ และคาร์ล่า ใช้ชีวิตอย่างมีความสุขภายในบ้านกลางเมือง
เมื่อจูลตัดสินใจว่าเด็กๆ ต้องเรียนรู้การใช้ชีวิตเหมือนนกจริงๆ เธอจึงยื่นคำขาดว่าครอบครัวต้องเดินทางไปที่ป่าอเมซอน
บลูเล่าให้เพื่อนสนิทของเขาฟังเรื่องแผนการเดินทาง แต่นิโก้ เปโดร และลูอิซเตือนเขาเรื่องความอันตรายนานับประการที่รออยู่เขาในป่า
มีเพียงราฟาเอลผู้มองโลกแง่ดีที่สนับสนุนบลูโดยให้แง่คิดกับเขาว่า “ภรรยาดีชีวิตมีสุข!”
 เมื่อพวกเขาเดินทางไปถึง บลูและจูลได้พบกับนกเจ้าถิ่น ได้แก่ เอ็ดดัวร์โด้ ผู้นำที่มีบารมีซึ่งเป็นผู้วางกฏอย่างรัดกุม
ที่กลายเป็นอุปสรรคชวนหัวเราะสำหรับบลู, มีมี่ น้องสาวผู้อบอุ่นและแสนซนของเอ็ดดัวร์โด้ที่ชอบพูดในสิ่งที่เธอคิด
แม้แต่จะพูดกับพี่ชายจอมบงการของเธอก็ตาม และโรเบอร์โต้ แบบอย่างของนกป่าที่สมบูรณ์แบบ เขาทำให้ทุกคนรอบตัวหลงใหลเขาได้
และทำให้บลูต้องเจียมตัว บลูพยายามปรับตัวให้กลมกลืน เพราะเขากลัวว่าจะสูญเสียจูลและลูกๆ ให้กับผืนป่า
ในขณะเดียวกันบลูต้องเผชิญหน้าแบบตาต่อตากับศัตรูคู่อาฆาต นกกระตั้วที่เคยทรยศอย่างไนเจลก็วางแผนแก้แค้นบลูเอาไว้
โดยมีกาบี้ กบมีพิษที่น่ารักเป็นผู้ช่วย เขาซื่อสัตย์ต่อไนเจลสุดตัวและถึงแม้เขาจะตัวเล็กแต่จิตใจเขาโหดร้ายมาก บลู จูล
และครอบครัวของพวกเขาต้องผจญภัยเจอกับอะไร ติดตามได้ในภาพยนตร์เรื่อง "Rio 2"!!!





[พากย์ไทย 5.1 + อังกฤษ DTS-HD MA 7.1]-[บรรยายไทย + อังกฤษ]
[เสียงไทย + ซับไทย BluRay MASTER]



MKV From DVD Master > http://www.mekafile.com/dl.php?f=7759171x80q0
INFO ดูรายละเอียดของไฟล์
Spoiler: show
Format                                   : Matroska
Format version                           : Version 2
File size                                : 1.61 GiB
Duration                                 : 1h 41mn
Overall bit rate                         : 2 281 Kbps
Writing application                      : Mac 10.9
Writing library                          : libmkv 0.6.5

Video
ID                                       : 1
Format                                   : AVC
Format/Info                              : Advanced Video Codec
Format profile                           : Main@L4.0
Format settings, CABAC                   : Yes
Format settings, ReFrames                : 4 frames
Codec ID                                 : V_MPEG4/ISO/AVC
Bit rate                                 : 1 500 Kbps
Width                                    : 720 pixels
Height                                   : 384 pixels
Display aspect ratio                     : 1.85:1
Frame rate mode                          : Variable
Color space                              : YUV
Chroma subsampling                       : 4:2:0
Bit depth                                : 8 bits
Scan type                                : Progressive
Writing library                          : x264 core 130 r2273 b3065e6
Encoding settings                        : cabac=1 / ref=1 / deblock=1:0:0 / analyse=0x1:0x111 / me=hex / subme=7 / psy=1 / psy_rd=1.00:0.00 / mixed_ref=0 / me_range=16 / chroma_me=1 / trellis=0 / 8x8dct=0 / cqm=0 / deadzone=21,11 / fast_pskip=1 / chroma_qp_offset=-2 / threads=6 / lookahead_threads=1 / sliced_threads=0 / nr=0 / decimate=1 / interlaced=0 / bluray_compat=0 / constrained_intra=0 / bframes=3 / b_pyramid=2 / b_adapt=1 / b_bias=0 / direct=1 / weightb=1 / open_gop=0 / weightp=1 / keyint=240 / keyint_min=24 / scenecut=40 / intra_refresh=0 / rc_lookahead=10 / rc=2pass / mbtree=1 / bitrate=1500 / ratetol=1.0 / qcomp=0.60 / qpmin=0 / qpmax=69 / qpstep=4 / cplxblur=20.0 / qblur=0.5 / vbv_maxrate=20000 / vbv_bufsize=25000 / nal_hrd=none / ip_ratio=1.40 / aq=1:1.00
Language                                 : English
Default                                  : Yes
Forced                                   : No
Color primaries                          : BT.601 NTSC
Transfer characteristics                 : BT.709
Matrix coefficients                      : BT.601

Audio #1
ID                                       : 2
Format                                   : AC-3
Format/Info                              : Audio Coding 3
Mode extension                           : CM (complete main)
Format settings, Endianness              : Big
Codec ID                                 : A_AC3
Duration                                 : 1h 41mn
Bit rate mode                            : Constant
Bit rate                                 : 384 Kbps
Channel(s)                               : 6 channels
Channel positions                        : Front: L C R, Side: L R, LFE
Sampling rate                            : 48.0 KHz
Bit depth                                : 16 bits
Compression mode                         : Lossy
Stream size                              : 278 MiB (17%)
Language                                 : Thai
Default                                  : Yes
Forced                                   : No

Audio #2
ID                                       : 3
Format                                   : AC-3
Format/Info                              : Audio Coding 3
Mode extension                           : CM (complete main)
Format settings, Endianness              : Big
Codec ID                                 : A_AC3
Duration                                 : 1h 41mn
Bit rate mode                            : Constant
Bit rate                                 : 384 Kbps
Channel(s)                               : 6 channels
Channel positions                        : Front: L C R, Side: L R, LFE
Sampling rate                            : 48.0 KHz
Bit depth                                : 16 bits
Compression mode                         : Lossy
Stream size                              : 278 MiB (17%)
Language                                 : English
Default                                  : No
Forced                                   : No

Text #1
ID                                       : 4
Format                                   : VobSub
Codec ID                                 : S_VOBSUB
Codec ID/Info                            : The same subtitle format used on DVDs
Language                                 : Thai
Default                                  : Yes
Forced                                   : No

Text #2
ID                                       : 5
Format                                   : VobSub
Codec ID                                 : S_VOBSUB
Codec ID/Info                            : The same subtitle format used on DVDs
Language                                 : English
Default                                  : No
Forced                                   : No

Menu
00:00:00.000                             : Chapter 1
00:03:10.723                             : Chapter 2
00:05:14.314                             : Chapter 3
00:08:49.362                             : Chapter 4
00:13:02.281                             : Chapter 5
00:17:36.388                             : Chapter 6
00:19:19.491                             : Chapter 7
00:22:30.349                             : Chapter 8
00:26:48.773                             : Chapter 9
00:29:00.238                             : Chapter 10
00:30:59.691                             : Chapter 11
00:33:46.557                             : Chapter 12
00:36:34.192                             : Chapter 13
00:39:20.224                             : Chapter 14
00:41:32.656                             : Chapter 15
00:45:05.202                             : Chapter 16
00:47:23.173                             : Chapter 17
00:49:58.178                             : Chapter 18
00:52:05.472                             : Chapter 19
00:55:39.019                             : Chapter 20
00:58:11.004                             : Chapter 21
01:02:11.411                             : Chapter 22
01:04:38.091                             : Chapter 23
01:07:04.036                             : Chapter 24
01:09:18.204                             : Chapter 25
01:10:21.400                             : Chapter 26
01:15:17.863                             : Chapter 27
01:17:00.165                             : Chapter 28
01:21:41.913                             : Chapter 29
01:25:24.636                             : Chapter 30
01:29:42.727                             : Chapter 31
01:32:27.925                             : Chapter 32



เล็กพริกขี้หนู 1080p > http://www.mekafile.com/dl.php?f=v221251x3I0Y
INFO ดูรายละเอียดของไฟล์
Spoiler: show
Format                                   : Matroska
Format version                           : Version 4 / Version 2
File size                                : 3.37 GiB
Duration                                 : 1h 41mn
Overall bit rate mode                    : Variable
Overall bit rate                         : 4 774 Kbps
Movie name                               : Rio.2.2014.1080p.BrRip.x264.AC3_by NongZEZA@CtHts
Encoded date                             : UTC 2010-02-22 21:41:31
Writing application                      : mkvmerge v5.9.0 ( On The Loose ) built on Dec  9 2012 15:37:01
Writing library                          : libebml v1.3.0 + libmatroska v1.4.0

Video
ID                                       : 1
Format                                   : AVC
Format/Info                              : Advanced Video Codec
Format profile                           : High@L4.0
Format settings, CABAC                   : Yes
Format settings, ReFrames                : 4 frames
Codec ID                                 : V_MPEG4/ISO/AVC
Duration                                 : 1h 41mn
Bit rate mode                            : Variable
Bit rate                                 : 3 655 Kbps
Maximum bit rate                         : 40.0 Mbps
Width                                    : 1 920 pixels
Height                                   : 800 pixels
Display aspect ratio                     : 2.40:1
Frame rate mode                          : Constant
Frame rate                               : 23.976 fps
Color space                              : YUV
Chroma subsampling                       : 4:2:0
Bit depth                                : 8 bits
Scan type                                : Progressive
Bits/(Pixel*Frame)                       : 0.099
Stream size                              : 2.58 GiB (77%)
Title                                    : Rio.2.2014.1080p.BrRip.x264.AC3_by NongZEZA@CtHts
Language                                 : English
Default                                  : Yes
Forced                                   : No

Audio #1
ID                                       : 2
Format                                   : AC-3
Format/Info                              : Audio Coding 3
Mode extension                           : CM (complete main)
Format settings, Endianness              : Big
Codec ID                                 : A_AC3
Duration                                 : 1h 41mn
Bit rate mode                            : Constant
Bit rate                                 : 384 Kbps
Channel(s)                               : 6 channels
Channel positions                        : Front: L C R, Side: L R, LFE
Sampling rate                            : 48.0 KHz
Bit depth                                : 16 bits
Compression mode                         : Lossy
Stream size                              : 278 MiB (8%)
Title                                    : Thai DVD Master
Language                                 : Thai
Default                                  : Yes
Forced                                   : Yes

Audio #2
ID                                       : 3
Format                                   : AC-3
Format/Info                              : Audio Coding 3
Mode extension                           : CM (complete main)
Format settings, Endianness              : Big
Codec ID                                 : A_AC3
Duration                                 : 1h 41mn
Bit rate mode                            : Constant
Bit rate                                 : 640 Kbps
Channel(s)                               : 6 channels
Channel positions                        : Front: L C R, Side: L R, LFE
Sampling rate                            : 48.0 KHz
Bit depth                                : 16 bits
Compression mode                         : Lossy
Stream size                              : 463 MiB (13%)
Title                                    : English AC3 5.1
Language                                 : English
Default                                  : No
Forced                                   : No

Text #1
ID                                       : 4
Format                                   : VobSub
Codec ID                                 : S_VOBSUB
Codec ID/Info                            : The same subtitle format used on DVDs
Title                                    : Thai 480p DVD Master
Language                                 : Thai
Default                                  : No
Forced                                   : No

Text #2
ID                                       : 5
Format                                   : VobSub
Codec ID                                 : S_VOBSUB
Codec ID/Info                            : The same subtitle format used on DVDs
Title                                    : Thai 720p
Language                                 : Thai
Default                                  : No
Forced                                   : No

Text #3
ID                                       : 6
Format                                   : VobSub
Codec ID                                 : S_VOBSUB
Codec ID/Info                            : The same subtitle format used on DVDs
Title                                    : Thai 1080p
Language                                 : Thai
Default                                  : Yes
Forced                                   : Yes

Text #4
ID                                       : 7
Format                                   : VobSub
Codec ID                                 : S_VOBSUB
Codec ID/Info                            : The same subtitle format used on DVDs
Title                                    : Thai 1080p Yellow
Language                                 : Thai
Default                                  : No
Forced                                   : No



BDRM Full Bitrate > http://www.mekafile.com/dl.php?f=Md99a01x80CA
INFO ดูรายละเอียดของไฟล์
Spoiler: show
DISC INFO:
Disc Title:     [BDRM] Rio 2 2014 2D Blu-ray 1080p AVC DTS HD MA 7.1_by NongZEZA@CtHts
Disc Size:      23,813,899,040 bytes
Protection:     AACS
BD-Java:        No
BDInfo:         0.5.8


PLAYLIST REPORT:
Name:                   00000.MPLS
Length:                 1:41:11.232 (h:m:s.ms)
Size:                   23,813,812,224 bytes
Total Bitrate:          31.38 Mbps


VIDEO:
Codec                   Bitrate             Des--cription     
-----                   -------             -----------     
MPEG-4 AVC Video        24241 kbps          1080p / 23.976 fps / 16:9 / High Profile 4.1


AUDIO:
Codec                           Language        Bitrate         Des--cription     
-----                           --------        -------         -----------     
DTS-HD Master Audio             English         4544 kbps       7.1 / 48 kHz / 4544 kbps / 24-bit (DTS Core: 5.1-ES / 48 kHz / 1509 kbps / 24-bit)
Dolby Digital Audio             Thai            448 kbps        5.1 / 48 kHz / 448 kbps
Dolby Digital Audio             English         448 kbps        5.1 / 48 kHz / 448 kbps


SUBTITLES:
Codec                           Language        Bitrate         Des--cription     
-----                           --------        -------         -----------     
Presentation Graphics           Thai            29.250 kbps                     
Presentation Graphics           English         50.440 kbps                     
Presentation Graphics           English         0.009 kbps                     


FILES:
Name            Time In         Length          Size            Total Bitrate   
----            -------         ------          ----            -------------   
00000.M2TS      0:00:00.000     1:41:11.232     23,813,812,224  31,379



3D Over-Under > http://www.mekafile.com/dl.php?f=D32cbd1x3UGl
INFO ดูรายละเอียดของไฟล์
Spoiler: show
Format                                   : Matroska
Format version                           : Version 4 / Version 2
File size                                : 12.4 GiB
Duration                                 : 1h 41mn
Overall bit rate mode                    : Variable
Overall bit rate                         : 17.5 Mbps
Movie name                               : Rio.2.2014.1080p.3D.BluRay.Half-OU.DTS-HD MA 7.1.x264_by NongZEZA@CtHts
Encoded date                             : UTC 2010-02-22 21:41:31
Writing application                      : mkvmerge v5.9.0 ( On The Loose ) built on Dec  9 2012 15:37:01
Writing library                          : libebml v1.3.0 + libmatroska v1.4.0

Video
ID                                       : 1
Format                                   : AVC
Format/Info                              : Advanced Video Codec
Format profile                           : High@L4.1
Format settings, CABAC                   : Yes
Format settings, ReFrames                : 4 frames
Codec ID                                 : V_MPEG4/ISO/AVC
Duration                                 : 1h 41mn
Nominal bit rate                         : 12.5 Mbps
Width                                    : 1 920 pixels
Height                                   : 1 080 pixels
Display aspect ratio                     : 16:9
Frame rate mode                          : Constant
Frame rate                               : 23.976 fps
Color space                              : YUV
Chroma subsampling                       : 4:2:0
Bit depth                                : 8 bits
Scan type                                : Progressive
Bits/(Pixel*Frame)                       : 0.251
Title                                    : Rio.2.2014.1080p.3D.BluRay.Half-OU.DTS-HD MA 7.1.x264_by NongZEZA@CtHts
Writing library                          : x264 core 133 r2334 a3ac64b
Encoding settings                        : cabac=1 / ref=4 / deblock=1:-1:-1 / analyse=0x3:0x113 / me=tesa / subme=11 / psy=1 / psy_rd=0.90:0.00 / mixed_ref=1 / me_range=24 / chroma_me=1 / trellis=2 / 8x8dct=1 / cqm=0 / deadzone=21,11 / fast_pskip=1 / chroma_qp_offset=-2 / threads=12 / lookahead_threads=2 / sliced_threads=0 / nr=0 / decimate=0 / interlaced=0 / bluray_compat=0 / constrained_intra=0 / bframes=7 / b_pyramid=2 / b_adapt=2 / b_bias=0 / direct=3 / weightb=1 / open_gop=0 / weightp=2 / keyint=250 / keyint_min=23 / scenecut=40 / intra_refresh=0 / rc_lookahead=40 / rc=2pass / mbtree=0 / bitrate=12500 / ratetol=1.0 / qcomp=0.70 / qpmin=10 / qpmax=69 / qpstep=4 / cplxblur=20.0 / qblur=0.5 / vbv_maxrate=40000 / vbv_bufsize=30000 / nal_hrd=none / frame-packing=4 / ip_ratio=1.30 / pb_ratio=1.20 / aq=1:0.80
Language                                 : English
Default                                  : Yes
Forced                                   : No

Audio #1
ID                                       : 2
Format                                   : AC-3
Format/Info                              : Audio Coding 3
Mode extension                           : CM (complete main)
Format settings, Endianness              : Big
Codec ID                                 : A_AC3
Duration                                 : 1h 41mn
Bit rate mode                            : Constant
Bit rate                                 : 384 Kbps
Channel(s)                               : 6 channels
Channel positions                        : Front: L C R, Side: L R, LFE
Sampling rate                            : 48.0 KHz
Bit depth                                : 16 bits
Compression mode                         : Lossy
Stream size                              : 278 MiB (2%)
Title                                    : Thai DVD Master
Language                                 : Thai
Default                                  : Yes
Forced                                   : Yes

Audio #2
ID                                       : 3
Format                                   : DTS
Format/Info                              : Digital Theater Systems
Format profile                           : MA / Core
Mode                                     : 16
Format settings, Endianness              : Big
Codec ID                                 : A_DTS
Duration                                 : 1h 41mn
Bit rate mode                            : Variable
Bit rate                                 : Unknown / 1 509 Kbps
Channel(s)                               : 8 channels / 6 channels
Channel positions                        : Front: L C R, Side: L R, Back: L R, LFE / Front: L C R, Side: L R, LFE
Sampling rate                            : 48.0 KHz
Bit depth                                : 24 bits
Compression mode                         : Lossless / Lossy
Title                                    : English DTS-HD MA 7.1
Language                                 : English
Default                                  : No
Forced                                   : No

Text #1
ID                                       : 4
Format                                   : VobSub
Codec ID                                 : S_VOBSUB
Codec ID/Info                            : The same subtitle format used on DVDs
Title                                    : Thai 480p
Language                                 : Thai
Default                                  : No
Forced                                   : No

Text #2
ID                                       : 5
Format                                   : VobSub
Codec ID                                 : S_VOBSUB
Codec ID/Info                            : The same subtitle format used on DVDs
Title                                    : Thai 720p
Language                                 : Thai
Default                                  : No
Forced                                   : No

Text #3
ID                                       : 6
Format                                   : VobSub
Codec ID                                 : S_VOBSUB
Codec ID/Info                            : The same subtitle format used on DVDs
Title                                    : Thai 1080p DVD Master
Language                                 : Thai
Default                                  : Yes
Forced                                   : No

Text #4
ID                                       : 7
Format                                   : PGS
Codec ID                                 : S_HDMV/PGS
Codec ID/Info                            : The same subtitle format used on BDs/HD-DVDs
Title                                    : Thai PGS
Language                                 : Thai
Default                                  : No
Forced                                   : No



3D Full Rip-ISO > http://www.mekafile.com/dl.php?f=b05f2f1x7SaR
INFO ดูรายละเอียดของไฟล์
Spoiler: show
DISC INFO:

Disc Title:     RIO_2_3D
Disc Size:      46,037,676,971 bytes
Protection:     BD+
BD-Java:        Yes
Extras:         Blu-ray 3D
BDInfo:         0.5.8

PLAYLIST REPORT:

Name:                   00800.MPLS
Length:                 1:41:10.105 (h:m:s.ms)
Size:                   40,305,592,320 bytes
Total Bitrate:          53.12 Mbps

VIDEO:

Codec                   Bitrate             Des--cription   
-----                   -------             -----------   
MPEG-4 AVC Video        25391 kbps          1080p / 23.976 fps / 16:9 / High Profile 4.1
MPEG-4 MVC Video        15188 kbps                         

AUDIO:

Codec                           Language        Bitrate         Des--cription   
-----                           --------        -------         -----------   
DTS-HD Master Audio             English         4545 kbps       7.1 / 48 kHz / 4545 kbps / 24-bit (DTS Core: 5.1-ES / 48 kHz / 1509 kbps / 24-bit)
DTS Audio                       Danish          768 kbps        5.1 / 48 kHz / 768 kbps / 24-bit
DTS Audio                       Finnish         768 kbps        5.1 / 48 kHz / 768 kbps / 24-bit
DTS Audio                       Norwegian       768 kbps        5.1 / 48 kHz / 768 kbps / 24-bit
DTS Audio                       Swedish         768 kbps        5.1 / 48 kHz / 768 kbps / 24-bit
Dolby Digital Audio             Chinese         448 kbps        5.1 / 48 kHz / 448 kbps
Dolby Digital Audio             Chinese         448 kbps        5.1 / 48 kHz / 448 kbps
Dolby Digital Audio             Thai            448 kbps        5.1 / 48 kHz / 448 kbps

SUBTITLES:

Codec                           Language        Bitrate         Des--cription   
-----                           --------        -------         -----------   
Presentation Graphics           English         36.725 kbps                   
Presentation Graphics           Danish          33.505 kbps                   
Presentation Graphics           Finnish         31.881 kbps                   
Presentation Graphics           Norwegian       36.028 kbps                   
Presentation Graphics           Swedish         29.994 kbps                   
Presentation Graphics           Chinese         24.841 kbps                   
Presentation Graphics           Indonesian      39.054 kbps                   
Presentation Graphics           Malay           38.769 kbps                   
Presentation Graphics           Chinese         27.105 kbps                   
Presentation Graphics           Thai            29.256 kbps                   
Presentation Graphics           English         0.009 kbps

« แก้ไขครั้งสุดท้าย: ตุลาคม 18, 2017, 11:41:33 AM by Admin »
ไฟล์เกม VIP เกมไหนมีปัญหาโหลดไม่ใด้ PM ส่งข้อความถึง Admin
ไฟล์เก่าเว็บ RabbitFile สามารถโหลดใด้เพียงเปลี่ยน Url จาก http://www.rabbitfile.com/....... เป็น http://www.mekafile.com/........