ผู้เขียน หัวข้อ: John Carter (2012) : นักรบสงครามข้ามจักรวาล (2D + 3D) [Mini 1080p, Real 3D Remux Full Bitrate]  (อ่าน 811 ครั้ง)

0 สมาชิก และ 1 บุคคลทั่วไป กำลังดูหัวข้อนี้

ออฟไลน์ BLG-Game

  • Administrator
  • Hero Member
  • *********
  • กระทู้: 2216
    • ดูรายละเอียด
    • www.blggames.com


John Carter ดัดแปลงจาก นิยายคลาสสิคของ เอ็ดการ์ ไรซ์ เรื่อง A Princess of Mars
กลายมาเป็นหนังแอ็คชั่นผจญภัยที่มีเรื่องราวเกิดขึ้นบนดาวเคราะห์ลึกลับชื่อ บาร์ซูม สถานที่ซึ่งมีสิ่งมีชีวิตแปลกตาทั้ง
กลุ่มมนุษย์เผ่าตัวแดง-เฮเลียมไมท์-โซดันแกนส์-ธาร์คส์ และ เผ่าเธิร์ส
 จากเดิมที่เป็นดินแดนแสนอุดมสมบูรณ์ บัดนี้ได้กลายเป็นดวงดาวที่กำลังจะล่มสลายเหตุเพราะความขัดแย้งอันยาวกว่าหมื่นปี
ระหว่างพวกโซดันแกนส์ ที่นำโดย แซบบ์ ธาน และ พวกเฮเลียมไมท์ ที่นำโดย เดจาห์ ธอริส (รับบทโดย ลินน์ คอลลินน์) เจ้าหญิงนักรบผู้เลอโฉม
ซึ่งจอห์น คาร์เตอร์ (รับบทโดย เทย์เลอร์ คิตซ์) อดีตนายทหารผ่านศึกผู้เบื่อหน่ายสงสรามได้ถูกส่งตัวมาที่นี่อย่างไม่คาดฝัน!!!





[พากย์ไทย 5.1 + อังกฤษ DTS-HD MA 7.1]-[บรรยายไทย + อังกฤษ]-[BluRay MASTER]


Mini 1080p > http://www.mekafile.com/dl.php?f=l98f1e1x3XLo
Spoiler: show
  Format : Matroska
   Format version : Version 4 / Version 2
   File size : 3.60 GiB
   Duration : 2h 12mn
   Overall bit rate : 3 905 Kbps
   Movie name : John.Carter.2012.1080p_load-free-movies.com
   Encoded date : UTC 2014-05-31 22:16:29
   Writing application : mkvmerge v6.5.0 ('Isn't she lovely') built on Oct 20 2013 12:50:05
   Writing library : libebml v1.3.0 + libmatroska v1.4.1
   TITLE : BONDS.Title0.Angle1.BlurayRip
 Video #1
   ID : 1
   Format : AVC
   Format/Info : Advanced Video Codec
   Format profile : High@L4.1
   Format settings, CABAC : Yes
   Format settings, ReFrames : 5 frames
   Codec ID : V_MPEG4/ISO/AVC
   Duration : 2h 12mn
   Bit rate : 3 000 Kbps
   Width : 1 920 pixels
   Height : 800 pixels
   Display aspect ratio : 2.40:1
   Frame rate mode : Constant
   Frame rate : 23.976 fps
   Color space : YUV
   Chroma subsampling : 4:2:0
   Bit depth : 8 bits
   Scan type : Progressive
   Bits/(Pixel*Frame) : 0.081
   Stream size : 2.70 GiB (75%)
   Title : John.Carter.2012.1080p_load-free-movies.com
   Writing library : x264 core 130 r2273 b3065e6
   Encoding settings : cabac=1 / ref=5 / deblock=1:1:1 / analyse=0x3:0x113 / me=hex / subme=10 / psy=1 / psy_rd=2.00:1.00 / mixed_ref=1 / me_range=16 / chroma_me=1 / trellis=2 / 8x8dct=1 / cqm=0 / deadzone=21,11 / fast_pskip=1 / chroma_qp_offset=-4 / threads=6 / lookahead_threads=1 / sliced_threads=0 / nr=0 / decimate=0 / interlaced=0 / bluray_compat=0 / constrained_intra=0 / bframes=16 / b_pyramid=2 / b_adapt=1 / b_bias=0 / direct=1 / weightb=1 / open_gop=0 / weightp=2 / keyint=240 / keyint_min=24 / scenecut=40 / intra_refresh=0 / rc_lookahead=40 / rc=2pass / mbtree=1 / bitrate=3000 / ratetol=1.0 / qcomp=0.60 / qpmin=0 / qpmax=69 / qpstep=4 / cplxblur=20.0 / qblur=0.5 / vbv_maxrate=62500 / vbv_bufsize=78125 / nal_hrd=none / ip_ratio=1.40 / aq=1:2.00
   Language : English
   Default : Yes
   Forced : No
   Color primaries : BT.709
   Transfer characteristics : BT.709
   Matrix coefficients : BT.709
 Audio #2
   ID : 2
   Format : AC-3
   Format/Info : Audio Coding 3
   Mode extension : CM (complete main)
   Format settings, Endianness : Big
   Codec ID : A_AC3
   Duration : 2h 12mn
   Bit rate mode : Constant
   Bit rate : 448 Kbps
   Channel(s) : 6 channels
   Channel positions : Front: L C R, Side: L R, LFE
   Sampling rate : 48.0 KHz
   Bit depth : 16 bits
   Compression mode : Lossy
   Stream size : 423 MiB (11%)
   Title : Thai 5.1
   Language : Thai
   Default : Yes
   Forced : No
 Audio #3
   ID : 3
   Format : AC-3
   Format/Info : Audio Coding 3
   Mode extension : CM (complete main)
   Format settings, Endianness : Big
   Codec ID : A_AC3
   Duration : 2h 12mn
   Bit rate mode : Constant
   Bit rate : 448 Kbps
   Channel(s) : 6 channels
   Channel positions : Front: L C R, Side: L R, LFE
   Sampling rate : 48.0 KHz
   Bit depth : 16 bits
   Compression mode : Lossy
   Stream size : 423 MiB (11%)
   Title : English 5.1
   Default : No
   Forced : No
 Text #4
   ID : 4
   Format : VobSub
   Muxing mode : zlib
   Codec ID : S_VOBSUB
   Codec ID/Info : The same subtitle format used on DVDs
   Title : Thai From DVD Master
   Language : Thai
   Default : Yes
   Forced : No
 Text #5
   ID : 5
   Format : VobSub
   Muxing mode : zlib
   Codec ID : S_VOBSUB
   Codec ID/Info : The same subtitle format used on DVDs
   Title : Thai 480p
   Language : Thai
   Default : No
   Forced : No
 Text #6
   ID : 6
   Format : VobSub
   Muxing mode : zlib
   Codec ID : S_VOBSUB
   Codec ID/Info : The same subtitle format used on DVDs
   Title : Thai 480p
   Language : Thai
   Default : No
   Forced : No
 Text #7
   ID : 7
   Format : VobSub
   Muxing mode : zlib
   Codec ID : S_VOBSUB
   Codec ID/Info : The same subtitle format used on DVDs
   Title : Thai 1080p
   Language : Thai
   Default : No
   Forced : No
 Text #8
   ID : 8
   Format : UTF-8
   Codec ID : S_TEXT/UTF8
   Codec ID/Info : UTF-8 Plain Text
   Title : Eng SRT
   Language : English
   Default : No
   Forced : No



Full Rip ISO > http://www.mekafile.com/dl.php?f=YXd368b1K2rp
INFO ดูรายละเอียดของไฟล์
Spoiler: show



Real 3D Remux Full Bitrate > http://www.mekafile.com/dl.php?f=ou4212aYWhej
INFO ดูรายละเอียดของไฟล์
Spoiler: show
DISC INFO: 
Disc Title:     [BDRM-3D] John Carter (2012) 3D_by NongZEZA@CtHts
Disc Size:      39,836,889,264 bytes
Protection:     AACS
BD-Java:        No
Extras:         Blu-ray 3D
BDInfo:         0.5.8   


PLAYLIST REPORT:
Name:                   00000.MPLS
Length:                 2:12:01.747 (h:m:s.ms)
Size:                   39,836,645,376 bytes
Total Bitrate:          40.23 Mbps


VIDEO:
Codec                   Bitrate             Des--cription     
-----                   -------             -----------     
MPEG-4 AVC Video        22207 kbps          1080p / 23.976 fps / 16:9 / High Profile 4.1
MPEG-4 MVC Video        13242 kbps


AUDIO:
Codec                           Language        Bitrate         Des--cription     
-----                           --------        -------         -----------     
DTS-HD High-Res Audio           English         2046 kbps       7.1 / 48 kHz / 2046 kbps / 24-bit (DTS Core: 5.1 / 48 kHz / 1509 kbps / 24-bit)
Dolby Digital Audio             Thai            640 kbps        5.1 / 48 kHz / 640 kbps


SUBTITLES:
Codec                           Language        Bitrate         Des--cription     
-----                           --------        -------         -----------     
Presentation Graphics           Thai            15.050 kbps                     
Presentation Graphics           English         21.718 kbps

« แก้ไขครั้งสุดท้าย: ธันวาคม 02, 2017, 10:44:10 PM by Admin »
ไฟล์เกม VIP เกมไหนมีปัญหาโหลดไม่ใด้ PM ส่งข้อความถึง Admin
ไฟล์เก่าเว็บ RabbitFile สามารถโหลดใด้เพียงเปลี่ยน Url จาก http://www.rabbitfile.com/....... เป็น http://www.mekafile.com/........