ผู้เขียน หัวข้อ: The Way Way Back (2013) : ปิดเทอมนั้นไม่มีวันลืม [Mini 1080p]  (อ่าน 462 ครั้ง)

0 สมาชิก และ 1 บุคคลทั่วไป กำลังดูหัวข้อนี้

ออฟไลน์ BLG-Game

  • Administrator
  • Hero Member
  • *********
  • กระทู้: 2216
    • ดูรายละเอียด
    • www.blggames.com


THE WAY, WAY BACK เป็นเรื่องราวตลกของอายุ 14 ปี Duncan (Liam James) กับวัยหยุดฤดูร้อนกับแม่ของเขา Pam (Toni Collette)
และแฟนที่เอาแต่ใจของเขา Trent (Steve Carell) และลูกสาวของเขา Steph (Zoe Levin) เป็นเวลาที่เหมาะสม Duncan เก็บตัว
และค้นพบเพื่อนที่ไม่คาดคิดของเขา Owen (Sam Rockwell) ผู้จัดการจาก the Water Wizz water park ผ่านความตลกมิตรภาพลับกับ Owen, Duncan
เริ่มต้นกับสถานที่ที่ถูกเปิดอย่างช้า “ทั้งหมดในช่วงฤดูร้อนที่เขาจะไม่มีวันลืม”!!!





[พากย์ไทย 5.1+อังกฤษ DTS]+[บรรยายไทย+อังกฤษ]


Mini 1080p > http://www.mekafile.com/dl.php?f=K3836f1x4hYo
INFO ดูรายละเอียดของไฟล์
Spoiler: show
Format                                  : Matroska
Format version                          : Version 4 / Version 2
File size                                : 3.38 GiB
Duration                                : 1h 43mn
Overall bit rate                        : 4 672 Kbps
Movie name                              : The.Way.Way.Back.2013.1080p.BrRip.DTS.x264_by NongZEZA@CtHts
Encoded date                            : UTC 2010-02-22 21:41:31
Writing application                      : mkvmerge v5.9.0 ( On The Loose ) built on Dec  9 2012 15:37:01
Writing library                          : libebml v1.3.0 + libmatroska v1.4.0

Video
ID                                      : 1
Format                                  : AVC
Format/Info                              : Advanced Video Codec
Format profile                          : High@L4.1
Format settings, CABAC                  : Yes
Format settings, ReFrames                : 5 frames
Codec ID                                : V_MPEG4/ISO/AVC
Duration                                : 1h 43mn
Bit rate                                : 2 172 Kbps
Width                                    : 1 920 pixels
Height                                  : 1 040 pixels
Display aspect ratio                    : 1.85:1
Frame rate mode                          : Constant
Frame rate                              : 23.976 fps
Color space                              : YUV
Chroma subsampling                      : 4:2:0
Bit depth                                : 8 bits
Scan type                                : Progressive
Bits/(Pixel*Frame)                      : 0.045
Stream size                              : 1.57 GiB (47%)
Title                                    : The.Way.Way.Back.2013.1080p.BrRip.DTS.x264_by NongZEZA@CtHts
Writing library                          : x264 core 132 r2 76a5c3a
Encoding settings                        : cabac=1 / ref=5 / deblock=1:-1:-1 / analyse=0x3:0x133 / me=umh / subme=9 / psy=1 / psy_rd=1.00:0.15 / mixed_ref=1 / me_range=24 / chroma_me=1 / trellis=2 / 8x8dct=1 / cqm=0 / deadzone=21,11 / fast_pskip=0 / chroma_qp_offset=-3 / threads=36 / lookahead_threads=3 / sliced_threads=0 / nr=0 / decimate=1 / interlaced=0 / bluray_compat=0 / constrained_intra=0 / bframes=3 / b_pyramid=2 / b_adapt=2 / b_bias=0 / direct=3 / weightb=1 / open_gop=0 / weightp=2 / keyint=250 / keyint_min=23 / scenecut=40 / intra_refresh=0 / rc_lookahead=60 / rc=2pass / mbtree=1 / bitrate=2172 / ratetol=1.0 / qcomp=0.60 / qpmin=0 / qpmax=69 / qpstep=4 / cplxblur=20.0 / qblur=0.5 / vbv_maxrate=31250 / vbv_bufsize=31250 / nal_hrd=none / ip_ratio=1.40 / aq=1:1.00
Language                                : English
Default                                  : Yes
Forced                                  : No
Color primaries                          : BT.709
Matrix coefficients                      : BT.709

Audio #1
ID                                      : 2
Format                                  : DTS
Format/Info                              : Digital Theater Systems
Mode                                    : 16
Format settings, Endianness              : Big
Codec ID                                : A_DTS
Duration                                : 1h 43mn
Bit rate mode                            : Constant
Bit rate                                : 1 509 Kbps
Channel(s)                              : 6 channels
Channel positions                        : Front: L C R, Side: L R, LFE
Sampling rate                            : 48.0 KHz
Bit depth                                : 24 bits
Compression mode                        : Lossy
Stream size                              : 1.09 GiB (32%)
Title                                    : English DTS
Language                                : English
Default                                  : No
Forced                                  : No

Audio #2
ID                                      : 3
Format                                  : AC-3
Format/Info                              : Audio Coding 3
Mode extension                          : CM (complete main)
Format settings, Endianness              : Big
Codec ID                                : A_AC3
Duration                                : 1h 43mn
Bit rate mode                            : Constant
Bit rate                                : 448 Kbps
Channel(s)                              : 6 channels
Channel positions                        : Front: L C R, Side: L R, LFE
Sampling rate                            : 48.0 KHz
Bit depth                                : 16 bits
Compression mode                        : Lossy
Stream size                              : 332 MiB (10%)
Title                                    : Thai BluRay Master
Language                                : Thai
Default                                  : Yes
Forced                                  : Yes

Audio #3
ID                                      : 4
Format                                  : AC-3
Format/Info                              : Audio Coding 3
Mode extension                          : CM (complete main)
Format settings, Endianness              : Big
Codec ID                                : A_AC3
Duration                                : 1h 43mn
Bit rate mode                            : Constant
Bit rate                                : 448 Kbps
Channel(s)                              : 6 channels
Channel positions                        : Front: L C R, Side: L R, LFE
Sampling rate                            : 48.0 KHz
Bit depth                                : 16 bits
Compression mode                        : Lossy
Stream size                              : 332 MiB (10%)
Title                                    : English with Commentary
Language                                : English
Default                                  : No
Forced                                  : No

Text #1
ID                                      : 5
Format                                  : VobSub
Codec ID                                : S_VOBSUB
Codec ID/Info                            : The same subtitle format used on DVDs
Title                                    : Thai 480p BluRay Master
Language                                : Thai
Default                                  : No
Forced                                  : No

Text #2
ID                                      : 6
Format                                  : VobSub
Codec ID                                : S_VOBSUB
Codec ID/Info                            : The same subtitle format used on DVDs
Title                                    : Thai 720p BluRay Master
Language                                : Thai
Default                                  : No
Forced                                  : No

Text #3
ID                                      : 7
Format                                  : VobSub
Codec ID                                : S_VOBSUB
Codec ID/Info                            : The same subtitle format used on DVDs
Title                                    : Thai 1080p BluRay Master
Language                                : Thai
Default                                  : Yes
Forced                                  : Yes

Text #4
ID                                      : 8
Format                                  : VobSub
Codec ID                                : S_VOBSUB
Codec ID/Info                            : The same subtitle format used on DVDs
Title                                    : Thai 1080p BluRay Master [BIG]
Language                                : Thai
Default                                  : No
Forced                                  : No

Text #5
ID                                      : 9
Format                                  : PGS
Codec ID                                : S_HDMV/PGS
Codec ID/Info                            : The same subtitle format used on BDs/HD-DVDs
Title                                    : Thai PGS BluRay Master
Language                                : Thai
Default                                  : No
Forced                                  : No

Text #6
ID                                      : 10
Format                                  : PGS
Codec ID                                : S_HDMV/PGS
Codec ID/Info                            : The same subtitle format used on BDs/HD-DVDs
Title                                    : English
Language                                : English
Default                                  : No
Forced                                  : No

ไฟล์เกม VIP เกมไหนมีปัญหาโหลดไม่ใด้ PM ส่งข้อความถึง Admin
ไฟล์เก่าเว็บ RabbitFile สามารถโหลดใด้เพียงเปลี่ยน Url จาก http://www.rabbitfile.com/....... เป็น http://www.mekafile.com/........